Direct Download JamesDeen.Hardcore.Casey.Calvert.798.XXX.1080p.MP4-KTR torrent

download torrent
Size: 2.3 GB
Downloaded: 70
Hits: 185

JamesDeen.Hardcore.Casey.Calvert.798.XXX.1080p.MP4-KTR
Genre.......: Adult
Files.......: 49
Video.......: MP4
Date........: 2016-05-22
URL.........: http://jamesdeen.com/

Video
ID                                       : 1
Format                                   : AVC
Format/Info                              : Advanced Video Codec
Format profile                           : [email protected]
Format settings, CABAC                   : No
Format settings, ReFrames                : 3 frames
Codec ID                                 : avc1
Codec ID/Info                            : Advanced Video Coding
Duration                                 : 40mn 25s
Bit rate                                 : 8 000 Kbps
Width                                    : 1 920 pixels
Height                                   : 1 080 pixels
Display aspect ratio                     : 16:9
Frame rate mode                          : Constant
Frame rate                               : 23.976 (24000/1001) fps
Color space                              : YUV
Chroma subsampling                       : 4:2:0
Bit depth                                : 8 bits
Scan type                                : Progressive
Bits/(Pixel*Frame)                       : 0.161
Stream size                              : 2.26 GiB (99%)
Writing library                          : Zencoder Video Encoding System
Encoded date                             : UTC 1904-01-01 00:00:00
Tagged date                              : UTC 1904-01-01 00:00:00
Audio
ID                                       : 2
Format                                   : AAC
Format/Info                              : Advanced Audio Codec
Format profile                           : LC
Codec ID                                 : 40
Duration                                 : 40mn 26s
Bit rate mode                            : Variable
Bit rate                                 : 69.8 Kbps
Maximum bit rate                         : 113 Kbps
Channel(s)                               : 2 channels
Channel positions                        : Front: L R
Sampling rate                            : 44.1 KHz
Frame rate                               : 43.066 fps (1024 spf)
Compression mode                         : Lossy
Stream size                              : 20.2 MiB (1%)
Default                                  : Yes
Alternate group                          : 1
Encoded date                             : UTC 1904-01-01 00:00:00
Tagged date                              : UTC 1904-01-01 00:00:00


NEW adulttorrent.org - Exclusive video only

Related Torrents
Torrent Name   AGE FILES SIZE

 Date: 06/01/18 00:15   in : XXX 

475 days 1

 Date: 06/01/18 00:12   in : XXX 

475 days 1

 Date: 06/01/18 00:09   in : XXX 

475 days 1

 Date: 06/01/18 00:07   in : XXX 

475 days 1

 Date: 06/01/18 00:04   in : XXX 

475 days 1

 Date: 06/01/18 00:03   in : XXX 

475 days 1

 Date: 06/01/18 00:02   in : XXX 

475 days 1

 Date: 06/01/18 00:02   in : XXX 

475 days 1

 Date: 05/31/18 23:59   in : XXX 

475 days 1

 Date: 05/31/18 23:51   in : XXX 

475 days 1

 Date: 05/31/18 23:51   in : XXX 

475 days 1

 Date: 05/31/18 23:50   in : XXX 

475 days 1