Direct Download WivesOnVacation - Eva Karera, Romi Rain 720p mp4 07 September 2015 torrent

download torrent
Size: 1,012.8 MB
Downloaded: 178
Hits: 261
7 September 2015
Eva Karera & Romi Rain are taking a little vacation away from their husband\'s but the resort they are staying at has been a serious disappointment. They decide they have to make their own fun by starting a hot threesome with the resort employee.
Video
ID                                       : 1
Format                                   : AVC
Format/Info                              : Advanced Video Codec
Format profile                           : [email protected]
Format settings, CABAC                   : Yes
Format settings, ReFrames                : 4 frames
Codec ID                                 : avc1
Codec ID/Info                            : Advanced Video Coding
Duration                                 : 26mn 28s
Bit rate                                 : 5 240 Kbps
Width                                    : 1 280 pixels
Height                                   : 720 pixels
Display aspect ratio                     : 16:9
Frame rate mode                          : Constant
Frame rate                               : 24.000 fps
Color space                              : YUV
Chroma subsampling                       : 4:2:0
Bit depth                                : 8 bits
Scan type                                : Progressive
Bits/(Pixel*Frame)                       : 0.237
Stream size                              : 992 MiB (98%)
Writing library                          : x264 core 136
Encoding settings                        : cabac=1 / ref=4 / deblock=1:0:0 / analyse=0x3:0x113 / me=umh / subme=7 / psy=1 / psy_rd=0.00:0.00 / mixed_ref=1 / me_range=16 / chroma_me=1 / trellis=1 / 8x8dct=1 / cqm=0 / deadzone=21,11 / fast_pskip=0 / chroma_qp_offset=0 / threads=48 / lookahead_threads=5 / sliced_threads=0 / nr=0 / decimate=1 / interlaced=0 / bluray_compat=0 / constrained_intra=0 / bframes=16 / b_pyramid=2 / b_adapt=1 / b_bias=0 / direct=1 / weightb=1 / open_gop=0 / weightp=2 / keyint=300 / keyint_min=25 / scenecut=40 / intra_refresh=0 / rc_lookahead=40 / rc=2pass / mbtree=1 / bitrate=5240 / ratetol=1.0 / qcomp=0.50 / qpmin=8 / qpmax=51 / qpstep=4 / cplxblur=20.0 / qblur=0.5 / ip_ratio=1.41 / aq=1:1.00
Language                                 : English
Audio
ID                                       : 2
Format                                   : AAC
Format/Info                              : Advanced Audio Codec
Format profile                           : LC
Codec ID                                 : 40
Duration                                 : 26mn 28s
Duration_LastFrame                       : -22ms
Bit rate mode                            : Variable
Bit rate                                 : 104 Kbps
Maximum bit rate                         : 128 Kbps
Channel(s)                               : 2 channels
Channel positions                        : Front: L R
Sampling rate                            : 44.1 KHz
Compression mode                         : Lossy
Stream size                              : 19.6 MiB (2%)
Language                                 : English

NEW adulttorrent.org - Exclusive video only

Related Torrents
Torrent Name   AGE FILES SIZE

 Date: 10/20/19 20:07   in : Hardcore 

28 days 1 457.1 MB

 Date: 10/20/19 16:12   in : Hardcore 

28 days 3 1.5 GB

 Date: 10/20/19 15:37   in : Hardcore 

28 days 1 409.1 MB

 Date: 10/19/19 21:09   in : Hardcore 

29 days 1 371.3 MB

 Date: 10/19/19 20:56   in : Hardcore 

29 days 1 193 MB

 Date: 10/19/19 20:49   in : Hardcore 

29 days 1 353.7 MB

 Date: 10/19/19 20:32   in : Hardcore 

29 days 1 280.8 MB

 Date: 10/19/19 20:15   in : Hardcore 

29 days 1 437.2 MB

 Date: 10/19/19 19:49   in : Hardcore 

29 days 1 364.5 MB

 Date: 10/19/19 19:26   in : Hardcore 

29 days 1 419.8 MB

 Date: 10/19/19 19:08   in : Hardcore 

29 days 1 333.8 MB

 Date: 10/19/19 17:55   in : Hardcore 

29 days 1 195.2 MB