Direct Download InnocentHigh - Sophia Grace - School Wide Slut mp4 torrent

download torrent
Size: 552.3 MB
Downloaded: 212
Hits: 410

As Sophia waits to be talked to by her teacher, you can tell this is not going to be good. She seems super anxious and unsure of what the deal is. The teacher addresses her right away about all the fights taking place at school, every single day. He cant find the root of it, but thinks it might be because Sophia is fucking all the guys and they are getting jealous. She doesnt own up to it, so he has to investigate. She stands up and he examines her cute schoolgirl pussy, but cant seem to figure it out. He has to examine deeper, using classic medical tools like his finger and hard cock. He gets all up in this girl trying to find out if shes the culprit or not. Eventually after a rigorous fucking, we find out what we already knew. Sophia was the school slut, only to be further confirmed by her fucking the faculty too. She takes down her teachers jizz facial style and proclaims that she will stop fucking all the boys and only fuck him now. Sounds like good second semester plan to us.

Format                                   : MPEG-4
Format profile                           : Base Media / Version 2
Codec ID                                 : mp42
File size                                : 552 MiB
Duration                                 : 41mn 56s
Overall bit rate mode                    : Variable
Overall bit rate                         : 1 841 Kbps
Encoded date                             : UTC 2016-03-25 00:14:21
Tagged date                              : UTC 2016-03-25 00:14:21
Writing application                      : HandBrake 0.10.3 2016012200
Video
ID                                       : 1
Format                                   : AVC
Format/Info                              : Advanced Video Codec
Format profile                           : [email protected]
Format settings, CABAC                   : Yes
Format settings, ReFrames                : 4 frames
Codec ID                                 : avc1
Codec ID/Info                            : Advanced Video Coding
Duration                                 : 41mn 56s
Bit rate                                 : 1 700 Kbps
Width                                    : 854 pixels
Height                                   : 480 pixels
Display aspect ratio                     : 16:9
Original display aspect ratio            : 16:9
Frame rate mode                          : Constant
Frame rate                               : 29.970 fps
Color space                              : YUV
Chroma subsampling                       : 4:2:0
Bit depth                                : 8 bits
Scan type                                : Progressive
Bits/(Pixel*Frame)                       : 0.138
Stream size                              : 510 MiB (92%)
Writing library                          : x264 core 142 r2479 dd79a61
Encoding settings                        : cabac=1 / ref=2 / deblock=1:0:0 / analyse=0x1:0x111 / me=hex / subme=6 / psy=1 / psy_rd=1.00:0.00 / mixed_ref=1 / me_range=16 / chroma_me=1 / trellis=1 / 8x8dct=0 / cqm=0 / deadzone=21,11 / fast_pskip=1 / chroma_qp_offset=-2 / threads=12 / lookahead_threads=2 / sliced_threads=0 / nr=0 / decimate=1 / interlaced=0 / bluray_compat=0 / constrained_intra=0 / bframes=3 / b_pyramid=2 / b_adapt=1 / b_bias=0 / direct=1 / weightb=1 / open_gop=0 / weightp=1 / keyint=300 / keyint_min=30 / scenecut=40 / intra_refresh=0 / rc_lookahead=30 / rc=2pass / mbtree=1 / bitrate=1700 / ratetol=1.0 / qcomp=0.60 / qpmin=0 / qpmax=69 / qpstep=4 / cplxblur=20.0 / qblur=0.5 / vbv_maxrate=20000 / vbv_bufsize=25000 / nal_hrd=none / filler=0 / ip_ratio=1.40 / aq=1:1.00
Encoded date                             : UTC 2016-03-25 00:14:21
Tagged date                              : UTC 2016-03-25 00:14:21
Color primaries                          : BT.709-5, BT.1361, IEC 61966-2-4, SMPTE RP177
Transfer characteristics                 : BT.709-5, BT.1361
Matrix coefficients                      : BT.709-5, BT.1361, IEC 61966-2-4 709, SMPTE RP177
Audio
ID                                       : 2
Format                                   : AAC
Format/Info                              : Advanced Audio Codec
Format profile                           : LC
Codec ID                                 : 40
Duration                                 : 41mn 56s
Bit rate mode                            : Variable
Bit rate                                 : 132 Kbps
Channel(s)                               : 2 channels
Channel positions                        : Front: L R
Sampling rate                            : 48.0 KHz
Compression mode                         : Lossy
Stream size                              : 40.3 MiB (7%)
Title                                    : Stereo
Language                                 : English
Encoded date                             : UTC 2016-03-25 00:14:21
Tagged date                              : UTC 2016-03-25 00:14:21


NEW adulttorrent.org - Exclusive video only

Related Torrents
Torrent Name   AGE FILES SIZE

 Date: 06/01/18 00:15   in : XXX 

507 days 1

 Date: 06/01/18 00:12   in : XXX 

507 days 1

 Date: 06/01/18 00:09   in : XXX 

507 days 1

 Date: 06/01/18 00:07   in : XXX 

507 days 1

 Date: 06/01/18 00:04   in : XXX 

507 days 1

 Date: 06/01/18 00:03   in : XXX 

507 days 1

 Date: 06/01/18 00:02   in : XXX 

507 days 1

 Date: 06/01/18 00:02   in : XXX 

507 days 1

 Date: 05/31/18 23:59   in : XXX 

507 days 1

 Date: 05/31/18 23:51   in : XXX 

507 days 1

 Date: 05/31/18 23:51   in : XXX 

507 days 1

 Date: 05/31/18 23:50   in : XXX 

507 days 1