Direct Download Innocent.Teens.XXX.DVDRip.x264.SLiEZE torrent

download torrent
Size: 1.6 GB
Downloaded: 88
Hits: 174


Video
ID                                       : 1
Format                                   : AVC
Format/Info                              : Advanced Video Codec
Format profile                           : [email protected]
Format settings, CABAC                   : Yes
Format settings, ReFrames                : 5 frames
Codec ID                                 : avc1
Codec ID/Info                            : Advanced Video Coding
Duration                                 : 2h 0mn
Bit rate                                 : 1 811 Kbps
Width                                    : 640 pixels
Height                                   : 480 pixels
Display aspect ratio                     : 4:3
Frame rate mode                          : Constant
Frame rate                               : 29.970 fps
Color space                              : YUV
Chroma subsampling                       : 4:2:0
Bit depth                                : 8 bits
Scan type                                : Progressive
Bits/(Pixel*Frame)                       : 0.197
Stream size                              : 1.52 GiB (93%)
Writing library                          : x264 core 148 r2665 a01e339
Encoding settings                        : cabac=1 / ref=5 / deblock=1:0:0 / analyse=0x3:0x113 / me=umh / subme=8 / psy=1 / psy_rd=1.00:0.00 / mixed_ref=1 / me_range=16 / chroma_me=1 / trellis=1 / 8x8dct=1 / cqm=0 / deadzone=21,11 / fast_pskip=0 / chroma_qp_offset=-2 / threads=6 / lookahead_threads=1 / sliced_threads=0 / nr=0 / decimate=1 / interlaced=0 / bluray_compat=0 / constrained_intra=0 / bframes=3 / b_pyramid=2 / b_adapt=2 / b_bias=0 / direct=3 / weightb=1 / open_gop=0 / weightp=2 / keyint=300 / keyint_min=29 / scenecut=40 / intra_refresh=0 / rc_lookahead=50 / rc=crf / mbtree=1 / crf=19.0 / qcomp=0.60 / qpmin=0 / qpmax=69 / qpstep=4 / ip_ratio=1.40 / aq=1:1.00
Audio
ID                                       : 2
Format                                   : AAC
Format/Info                              : Advanced Audio Codec
Format profile                           : LC
Codec ID                                 : 40
Duration                                 : 2h 0mn
Bit rate mode                            : Variable
Bit rate                                 : 124 Kbps
Maximum bit rate                         : 176 Kbps
Channel(s)                               : 2 channels
Channel positions                        : Front: L R
Sampling rate                            : 48.0 KHz
Compression mode                         : Lossy
Delay relative to video                  : -2s 2ms
Stream size                              : 107 MiB (6%)


NEW adulttorrent.org - Exclusive video only

Related Torrents
Torrent Name   AGE FILES SIZE

 Date: 06/01/18 00:15   in : XXX 

500 days 1

 Date: 06/01/18 00:12   in : XXX 

500 days 1

 Date: 06/01/18 00:09   in : XXX 

500 days 1

 Date: 06/01/18 00:07   in : XXX 

500 days 1

 Date: 06/01/18 00:04   in : XXX 

500 days 1

 Date: 06/01/18 00:03   in : XXX 

500 days 1

 Date: 06/01/18 00:02   in : XXX 

500 days 1

 Date: 06/01/18 00:02   in : XXX 

500 days 1

 Date: 05/31/18 23:59   in : XXX 

500 days 1

 Date: 05/31/18 23:51   in : XXX 

500 days 1

 Date: 05/31/18 23:51   in : XXX 

500 days 1

 Date: 05/31/18 23:50   in : XXX 

500 days 1