Direct Download IAmEighteen.16.04.16.Callie.Klein.XXX.2160P.MP4-GUSH torrent

download torrent
Size: 5.3 GB
Downloaded: 155
Hits: 200

Release.Name: IAmEighteen.16.04.16.Callie.Klein.XXX.2160P.MP4-GUSH
Size........: 57 x 100MB
Release.Date: 16.04.18
URL.........: http://iameighteen.com
File Name...........: gush.iameighteen.16.04.16.callie.klein.mp4
Runtime.............: 35mn 22s
File Size...........: 5.28 GiB
Format..............: MPEG-4
Video Bitrate.......: 21.2 Mbps
Video Codec.........: AVC [email protected]
Aspect Ratio........: 16:9
Resolution..........: 3840x2160
Frame Rate..........: 29.970 fps
Audio Codec.........: AAC LC @ 126 Kbps
Channels............: 2 CH
Looking for .eu (.se .no .cz .dk .ru .lu .at .ro .ua .sk) sites contact us

Video
ID                                       : 1
Format                                   : AVC
Format/Info                              : Advanced Video Codec
Format profile                           : [email protected]
Format settings, CABAC                   : Yes
Format settings, ReFrames                : 2 frames
Codec ID                                 : avc1
Codec ID/Info                            : Advanced Video Coding
Duration                                 : 35mn 22s
Bit rate mode                            : Variable
Bit rate                                 : 21.2 Mbps
Maximum bit rate                         : 23.9 Mbps
Width                                    : 3 840 pixels
Height                                   : 2 160 pixels
Display aspect ratio                     : 16:9
Frame rate mode                          : Constant
Frame rate                               : 29.970 (30000/1001) fps
Color space                              : YUV
Chroma subsampling                       : 4:2:0
Bit depth                                : 8 bits
Scan type                                : Progressive
Bits/(Pixel*Frame)                       : 0.085
Stream size                              : 5.25 GiB (99%)
Encoded date                             : UTC 1904-01-01 00:00:00
Tagged date                              : UTC 1904-01-01 00:00:00
Audio
ID                                       : 2
Format                                   : AAC
Format/Info                              : Advanced Audio Codec
Format profile                           : LC
Codec ID                                 : 40
Duration                                 : 35mn 22s
Bit rate mode                            : Constant
Bit rate                                 : 126 Kbps
Channel(s)                               : 2 channels
Channel positions                        : Front: L R
Sampling rate                            : 44.1 KHz
Frame rate                               : 43.066 fps (1024 spf)
Compression mode                         : Lossy
Stream size                              : 31.8 MiB (1%)
Default                                  : Yes
Alternate group                          : 1
Encoded date                             : UTC 1904-01-01 00:00:00
Tagged date                              : UTC 1904-01-01 00:00:00


NEW adulttorrent.org - Exclusive video only

Related Torrents
Torrent Name   AGE FILES SIZE

 Date: 06/01/18 00:15   in : XXX 

509 days 1

 Date: 06/01/18 00:12   in : XXX 

509 days 1

 Date: 06/01/18 00:09   in : XXX 

509 days 1

 Date: 06/01/18 00:07   in : XXX 

509 days 1

 Date: 06/01/18 00:04   in : XXX 

509 days 1

 Date: 06/01/18 00:03   in : XXX 

509 days 1

 Date: 06/01/18 00:02   in : XXX 

509 days 1

 Date: 06/01/18 00:02   in : XXX 

509 days 1

 Date: 05/31/18 23:59   in : XXX 

509 days 1

 Date: 05/31/18 23:51   in : XXX 

509 days 1

 Date: 05/31/18 23:51   in : XXX 

509 days 1

 Date: 05/31/18 23:50   in : XXX 

509 days 1