Direct Download DDFBusty.16.03.08.Leanne.Crow.XXX.SD.MP4-RARBG torrent

download torrent
Size: 89.7 MB
Downloaded: 18
Hits: 37


Video
ID                                       : 1
Format                                   : AVC
Format/Info                              : Advanced Video Codec
Format profile                           : [email protected]
Format settings, CABAC                   : Yes
Format settings, ReFrames                : 5 frames
Codec ID                                 : avc1
Codec ID/Info                            : Advanced Video Coding
Duration                                 : 10mn 56s
Bit rate                                 : 1 000 Kbps
Width                                    : 720 pixels
Height                                   : 400 pixels
Display aspect ratio                     : 16:9
Frame rate mode                          : Constant
Frame rate                               : 29.970 (30000/1001) fps
Color space                              : YUV
Chroma subsampling                       : 4:2:0
Bit depth                                : 8 bits
Scan type                                : Progressive
Bits/(Pixel*Frame)                       : 0.116
Stream size                              : 78.7 MiB (88%)
Title                                    : RARBG.COM - DDFBusty.16.03.08.Leanne.Crow.XXX.SD.MP4-RARBG
Writing library                          : x264 core 148 r2597M e86f3a1
Encoding settings                        : cabac=1 / ref=5 / deblock=1:0:0 / analyse=0x3:0x113 / me=umh / subme=8 / psy=1 / psy_rd=1.00:0.00 / mixed_ref=1 / me_range=16 / chroma_me=1 / trellis=1 / 8x8dct=1 / cqm=0 / deadzone=21,11 / fast_pskip=1 / chroma_qp_offset=-2 / threads=12 / lookahead_threads=2 / sliced_threads=0 / nr=0 / decimate=1 / interlaced=0 / bluray_compat=0 / constrained_intra=0 / bframes=3 / b_pyramid=2 / b_adapt=2 / b_bias=0 / direct=3 / weightb=1 / open_gop=0 / weightp=2 / keyint=250 / keyint_min=25 / scenecut=40 / intra_refresh=0 / rc_lookahead=50 / rc=abr / mbtree=1 / bitrate=1000 / ratetol=1.0 / qcomp=0.60 / qpmin=0 / qpmax=69 / qpstep=4 / ip_ratio=1.40 / aq=1:1.00
Language                                 : English
Encoded date                             : UTC 2016-03-08 06:15:43
Tagged date                              : UTC 2016-03-08 06:15:43
Audio
ID                                       : 2
Format                                   : AAC
Format/Info                              : Advanced Audio Codec
Format profile                           : LC
Codec ID                                 : 40
Duration                                 : 10mn 56s
Bit rate mode                            : Constant
Bit rate                                 : 132 Kbps
Channel(s)                               : 2 channels
Channel positions                        : Front: L R
Sampling rate                            : 48.0 KHz
Frame rate                               : 46.875 fps (1024 spf)
Compression mode                         : Lossy
Stream size                              : 10.3 MiB (11%)
Title                                    : RARBG.COM - DDFBusty.16.03.08.Leanne.Crow.XXX.SD.MP4-RARBG
Language                                 : English
Default                                  : Yes
Alternate group                          : 1
Encoded date                             : UTC 2016-03-08 06:15:43
Tagged date                              : UTC 2016-03-08 06:15:43

Related Torrents
Torrent Name   AGE FILES SIZE

 Date: 04/29/16 03:44   in : Fetish 

335 days 1 668.3 MB

 Date: 04/28/16 01:27   in : Fetish 

336 days 1

 Date: 04/27/16 21:35   in : Fetish 

336 days 1 267.1 MB

 Date: 04/26/16 12:42   in : Fetish 

338 days 2 499 MB

 Date: 04/25/16 00:29   in : Fetish 

339 days 1

 Date: 04/16/16 19:17   in : Fetish 

347 days 3 1.1 GB

 Date: 04/15/16 21:47   in : Fetish 

348 days 6 942 MB

 Date: 04/12/16 22:00   in : Fetish 

351 days 1 1.5 GB

 Date: 04/12/16 19:53   in : Fetish 

351 days 1 1.5 GB

 Date: 04/12/16 00:21   in : Fetish 

352 days 1 479.9 MB

 Date: 04/08/16 11:20   in : Fetish 

356 days 1

 Date: 04/05/16 05:38   in : Fetish 

359 days 1 125.3 MB