Direct Download Hot Teen Next Door 28 2016 XXX WEB-DL SPLIT SCENES torrent

download torrent
Size: 2.2 GB
Downloaded: 101
Hits: 636

Video
ID                                       : 1
Format                                   : AVC
Format/Info                              : Advanced Video Codec
Format profile                           : [email protected]
Format settings, CABAC                   : No
Format settings, ReFrames                : 6 frames
Codec ID                                 : avc1
Codec ID/Info                            : Advanced Video Coding
Duration                                 : 31mn 29s
Source duration                          : 31mn 29s
Bit rate mode                            : Variable
Bit rate                                 : 1 438 Kbps
Maximum bit rate                         : 1 500 Kbps
Width                                    : 768 pixels
Height                                   : 432 pixels
Display aspect ratio                     : 16:9
Frame rate mode                          : Constant
Frame rate                               : 29.970 fps
Standard                                 : Component
Color space                              : YUV
Chroma subsampling                       : 4:2:0
Bit depth                                : 8 bits
Scan type                                : Progressive
Bits/(Pixel*Frame)                       : 0.145
Stream size                              : 324 MiB (93%)
Source stream size                       : 339 MiB (98%)
Encoded date                             : UTC 2015-01-23 23:09:51
Tagged date                              : UTC 2015-01-22 23:10:07
Color range                              : Limited
Audio
ID                                       : 2
Format                                   : AAC
Format/Info                              : Advanced Audio Codec
Format profile                           : LC
Codec ID                                 : 40
Duration                                 : 31mn 29s
Bit rate mode                            : Variable
Bit rate                                 : 32.0 Kbps
Maximum bit rate                         : 34.9 Kbps
Channel(s)                               : 1 channel
Channel positions                        : Front: C
Sampling rate                            : 32.0 KHz
Compression mode                         : Lossy
Stream size                              : 7.21 MiB (2%)
Encoded date                             : UTC 2015-01-23 23:09:51
Tagged date                              : UTC 2015-01-22 23:10:07


NEW adulttorrent.org - Exclusive video only

Related Torrents
Torrent Name   AGE FILES SIZE

 Date: 06/01/18 00:15   in : XXX 

509 days 1

 Date: 06/01/18 00:12   in : XXX 

509 days 1

 Date: 06/01/18 00:09   in : XXX 

509 days 1

 Date: 06/01/18 00:07   in : XXX 

509 days 1

 Date: 06/01/18 00:04   in : XXX 

509 days 1

 Date: 06/01/18 00:03   in : XXX 

509 days 1

 Date: 06/01/18 00:02   in : XXX 

509 days 1

 Date: 06/01/18 00:02   in : XXX 

509 days 1

 Date: 05/31/18 23:59   in : XXX 

509 days 1

 Date: 05/31/18 23:51   in : XXX 

509 days 1

 Date: 05/31/18 23:51   in : XXX 

509 days 1

 Date: 05/31/18 23:50   in : XXX 

509 days 1