Direct Download MommysGirl.15.08.29.Trinity.St.Clair.And.Kobe.Lee.A.Mothers.Prayer.Part.One.XXX.1080p.MP4-KTR torrent

download torrent
Size: 1.1 GB
Downloaded: 27
Hits: 267

MommysGirl.15.08.29.Trinity.St.Clair.And.Kobe.Lee.A.Mothers.
Prayer.Part.One.XXX.1080p.MP4-KTR
Genre.......: Adult
Files.......: 24
Video.......: MP4
Date........: 2015-08-29
URL.........: http://www.mommysgirl.com/en

Video
ID                                       : 1
Format                                   : AVC
Format/Info                              : Advanced Video Codec
Format profile                           : [email protected]
Format settings, CABAC                   : Yes
Format settings, ReFrames                : 4 frames
Codec ID                                 : avc1
Codec ID/Info                            : Advanced Video Coding
Duration                                 : 22mn 54s
Bit rate                                 : 6 800 Kbps
Width                                    : 1 920 pixels
Height                                   : 1 080 pixels
Display aspect ratio                     : 16:9
Frame rate mode                          : Constant
Frame rate                               : 29.970 fps
Color space                              : YUV
Chroma subsampling                       : 4:2:0
Bit depth                                : 8 bits
Scan type                                : Progressive
Bits/(Pixel*Frame)                       : 0.109
Stream size                              : 1.07 GiB (98%)
Writing library                          : x264 core 107
Encoding settings                        : cabac=1 / ref=3 / deblock=1:0:0 / analyse=0x3:0x113 / me=umh / subme=6 / psy=1 / psy_rd=1.00:0.00 / mixed_ref=1 / me_range=16 / chroma_me=1 / trellis=0 / 8x8dct=1 / cqm=0 / deadzone=21,11 / fast_pskip=1 / chroma_qp_offset=-2 / threads=1 / sliced_threads=0 / nr=0 / decimate=1 / interlaced=0 / constrained_intra=0 / bframes=2 / b_pyramid=2 / b_adapt=2 / b_bias=0 / direct=2 / weightb=1 / open_gop=0 / weightp=0 / keyint=30 / keyint_min=16 / scenecut=0 / intra_refresh=0 / rc_lookahead=30 / rc=abr / mbtree=1 / bitrate=6800 / ratetol=1.0 / qcomp=0.60 / qpmin=1 / qpmax=31 / qpstep=4 / ip_ratio=1.41 / aq=1:1.00
Encoded date                             : UTC 1904-01-01 00:00:00
Tagged date                              : UTC 1904-01-01 00:00:00
Audio
ID                                       : 2
Format                                   : AAC
Format/Info                              : Advanced Audio Codec
Format profile                           : LC
Codec ID                                 : 40
Duration                                 : 22mn 54s
Bit rate mode                            : Constant
Bit rate                                 : 152 Kbps
Channel(s)                               : 2 channels
Channel positions                        : Front: L R
Sampling rate                            : 44.1 KHz
Compression mode                         : Lossy
Stream size                              : 24.9 MiB (2%)
Encoded date                             : UTC 1904-01-01 00:00:00
Tagged date                              : UTC 1904-01-01 00:00:00

Related Torrents
Torrent Name   AGE FILES SIZE

 Date: 04/21/16 02:33   in : Homemade 

674 days 3 239.2 MB

 Date: 04/20/16 20:55   in : Homemade 

675 days 1 244.7 MB

 Date: 04/18/16 01:29   in : Homemade 

677 days 146 32.2 MB

 Date: 04/17/16 18:51   in : Homemade 

678 days 4 955.1 MB

 Date: 04/16/16 20:59   in : Homemade 

679 days 1 541.1 MB

 Date: 04/16/16 03:24   in : Homemade 

679 days 1

 Date: 04/10/16 13:18   in : Homemade 

685 days 5 178.9 MB

 Date: 04/10/16 06:46   in : Homemade 

685 days 1 162.5 MB

 Date: 04/07/16 22:51   in : Homemade 

688 days 1 172.1 MB

 Date: 04/06/16 22:35   in : Homemade 

689 days 16 123.6 MB

 Date: 04/06/16 22:12   in : Homemade 

689 days 252 57.2 MB

 Date: 04/04/16 23:41   in : Homemade 

691 days 1 203.6 MB