Direct Download HandsOnHardcore.Nikky.Dream.Hardcore.Recovery.Doc.s.Black.Cock.Penetrates.Blonde.s.Ass.mp4s torrent

download torrent
Size: 399.7 MB
Downloaded: 115
Hits: 197


Video
ID                                       : 1
Format                                   : AVC
Format/Info                              : Advanced Video Codec
Format profile                           : [email protected]
Format settings, CABAC                   : No
Format settings, ReFrames                : 3 frames
Format settings, GOP                     : M=1, N=29
Codec ID                                 : avc1
Codec ID/Info                            : Advanced Video Coding
Duration                                 : 40mn 9s
Bit rate                                 : 1 199 Kbps
Width                                    : 640 pixels
Height                                   : 360 pixels
Display aspect ratio                     : 16:9
Frame rate mode                          : Variable
Frame rate                               : 29.970 fps
Minimum frame rate                       : 29.970 fps
Maximum frame rate                       : 30.000 fps
Standard                                 : NTSC
Color space                              : YUV
Chroma subsampling                       : 4:2:0
Bit depth                                : 8 bits
Scan type                                : Progressive
Bits/(Pixel*Frame)                       : 0.174
Stream size                              : 344 MiB (86%)
Language                                 : English
Encoded date                             : UTC 2016-04-01 14:22:57
Tagged date                              : UTC 2016-04-01 14:22:57
Color primaries                          : BT.601-6 525, BT.1358 525, BT.1700 NTSC, SMPTE 170M
Transfer characteristics                 : BT.601-6 525, BT.601-6 625, BT.1358 525, BT.1358 625, BT.1700 NTSC, SMPTE 170M
Matrix coefficients                      : BT.601-6 525, BT.1358 525, BT.1700 NTSC, SMPTE 170M
Audio
ID                                       : 2
Format                                   : AAC
Format/Info                              : Advanced Audio Codec
Format profile                           : LC
Codec ID                                 : 40
Duration                                 : 40mn 9s
Source duration                          : 40mn 9s
Bit rate mode                            : Variable
Bit rate                                 : 192 Kbps
Maximum bit rate                         : 294 Kbps
Channel(s)                               : 2 channels
Channel positions                        : Front: L R
Sampling rate                            : 48.0 KHz
Compression mode                         : Lossy
Stream size                              : 54.4 MiB (14%)
Source stream size                       : 54.4 MiB (14%)
Language                                 : English
Encoded date                             : UTC 2016-04-01 14:22:57
Tagged date                              : UTC 2016-04-01 14:22:57


NEW adulttorrent.org - Exclusive video only

Related Torrents
Torrent Name   AGE FILES SIZE

 Date: 06/01/18 00:15   in : XXX 

532 days 1

 Date: 06/01/18 00:12   in : XXX 

532 days 1

 Date: 06/01/18 00:09   in : XXX 

532 days 1

 Date: 06/01/18 00:07   in : XXX 

532 days 1

 Date: 06/01/18 00:04   in : XXX 

532 days 1

 Date: 06/01/18 00:03   in : XXX 

532 days 1

 Date: 06/01/18 00:02   in : XXX 

532 days 1

 Date: 06/01/18 00:02   in : XXX 

532 days 1

 Date: 05/31/18 23:59   in : XXX 

532 days 1

 Date: 05/31/18 23:51   in : XXX 

532 days 1

 Date: 05/31/18 23:51   in : XXX 

532 days 1

 Date: 05/31/18 23:50   in : XXX 

532 days 1