Direct Download KarupsOW.16.09.05.Josephine.Jones.Solo.1.XXX.720p.MP4.KTR torrent

download torrent
Size: 462.5 MB
Downloaded: 148
Hits: 317


Video
ID                                       : 1
Format                                   : AVC
Format/Info                              : Advanced Video Codec
Format profile                           : [email protected]
Format settings, CABAC                   : No
Format settings, ReFrames                : 2 frames
Codec ID                                 : avc1
Codec ID/Info                            : Advanced Video Coding
Duration                                 : 12mn 43s
Bit rate                                 : 4 997 Kbps
Width                                    : 1 280 pixels
Height                                   : 720 pixels
Display aspect ratio                     : 16:9
Frame rate mode                          : Constant
Frame rate                               : 23.976 fps
Standard                                 : NTSC
Color space                              : YUV
Chroma subsampling                       : 4:2:0
Bit depth                                : 8 bits
Scan type                                : Progressive
Bits/(Pixel*Frame)                       : 0.226
Stream size                              : 455 MiB (98%)
Audio
ID                                       : 2
Format                                   : AAC
Format/Info                              : Advanced Audio Codec
Format profile                           : LC
Codec ID                                 : 40
Duration                                 : 12mn 43s
Bit rate mode                            : Constant
Bit rate                                 : 72.0 Kbps
Channel(s)                               : 2 channels
Channel positions                        : Front: L R
Sampling rate                            : 44.1 KHz
Compression mode                         : Lossy
Delay relative to video                  : -1s 0ms
Stream size                              : 6.56 MiB (1%)

NEW adulttorrent.org - Exclusive video only

Related Torrents
Torrent Name   AGE FILES SIZE

 Date: 10/20/19 13:50   in : MILF 

373 days 2 520.7 MB

 Date: 10/19/19 16:14   in : MILF 

374 days 2 375.3 MB

 Date: 10/18/19 19:41   in : MILF 

375 days 3 1.2 GB

 Date: 10/18/19 07:47   in : MILF 

375 days 1 463.9 MB

 Date: 10/17/19 09:55   in : MILF 

376 days 2 507.4 MB

 Date: 10/16/19 10:35   in : MILF 

377 days 1 496 MB

 Date: 10/07/19 04:10   in : MILF 

386 days 1 385.8 MB

 Date: 10/07/19 03:44   in : MILF 

386 days 1 399 MB

 Date: 10/05/19 15:09   in : MILF 

388 days 1 1.3 GB

 Date: 10/05/19 14:46   in : MILF 

388 days 2 395.5 MB

 Date: 10/05/19 14:23   in : MILF 

388 days 1 2.6 GB

 Date: 10/05/19 13:58   in : MILF 

388 days 1 3.3 GB


Copyright © OnceSearch.com 2015-2019. OnceSearch.com provides only meta files (small .torrent files) on its web site, and hosts no actual file for download!!!