Direct Download GroupSexGames.16.03.11.Heart.Lines.XXX.1080p.MP4-KTR torrent

download torrent
Size: 14.8 GB
Downloaded: 201
Hits: 338

GroupSexGames.16.03.11.Heart.Lines.XXX.1080p.MP4-KTR
Genre.......: Adult
Files.......: 80
Video.......: MP4
Date........: 2016-04-13
URL.........: http://www.groupsexgames.com/
Starring: Betty Style, Cipriana, Leyla

Video
ID                                       : 1
Format                                   : AVC
Format/Info                              : Advanced Video Codec
Format profile                           : [email protected]
Format settings, CABAC                   : Yes
Format settings, ReFrames                : 3 frames
Codec ID                                 : avc1
Codec ID/Info                            : Advanced Video Coding
Duration                                 : 3h 27mn
Bit rate                                 : 9 989 Kbps
Width                                    : 1 920 pixels
Height                                   : 1 080 pixels
Display aspect ratio                     : 16:9
Frame rate mode                          : Variable
Frame rate                               : 50.000 fps
Minimum frame rate                       : 50.000 fps
Maximum frame rate                       : 50.050 fps
Standard                                 : PAL
Color space                              : YUV
Chroma subsampling                       : 4:2:0
Bit depth                                : 8 bits
Scan type                                : Progressive
Bits/(Pixel*Frame)                       : 0.096
Stream size                              : 14.5 GiB (98%)
Language                                 : English
Encoded date                             : UTC 2016-03-10 20:37:17
Tagged date                              : UTC 2016-03-10 20:37:17
Color range                              : Limited
mdhd_Duration                            : 12445640
Audio
ID                                       : 2
Format                                   : AAC
Format/Info                              : Advanced Audio Codec
Format profile                           : LC
Codec ID                                 : 40
Duration                                 : 3h 27mn
Source duration                          : 3h 27mn
Bit rate mode                            : Variable
Bit rate                                 : 192 Kbps
Maximum bit rate                         : 298 Kbps
Channel(s)                               : 2 channels
Channel positions                        : Front: L R
Sampling rate                            : 48.0 KHz
Frame rate                               : 46.875 fps (1024 spf)
Compression mode                         : Lossy
Stream size                              : 281 MiB (2%)
Source stream size                       : 281 MiB (2%)
Language                                 : English
Encoded date                             : UTC 2016-03-10 20:37:17
Tagged date                              : UTC 2016-03-10 20:37:17
mdhd_Duration                            : 12445675


NEW adulttorrent.org - Exclusive video only

Related Torrents
Torrent Name   AGE FILES SIZE

 Date: 06/01/18 00:15   in : XXX 

537 days 1

 Date: 06/01/18 00:12   in : XXX 

537 days 1

 Date: 06/01/18 00:09   in : XXX 

537 days 1

 Date: 06/01/18 00:07   in : XXX 

537 days 1

 Date: 06/01/18 00:04   in : XXX 

537 days 1

 Date: 06/01/18 00:03   in : XXX 

537 days 1

 Date: 06/01/18 00:02   in : XXX 

537 days 1

 Date: 06/01/18 00:02   in : XXX 

537 days 1

 Date: 05/31/18 23:59   in : XXX 

537 days 1

 Date: 05/31/18 23:51   in : XXX 

537 days 1

 Date: 05/31/18 23:51   in : XXX 

537 days 1

 Date: 05/31/18 23:50   in : XXX 

537 days 1