Direct Download GroupSexGames.16.02.12.Badminsex.XXX.1080p.MP4-KTR torrent

download torrent
Size: 14.1 GB
Downloaded: 226
Hits: 413

GroupSexGames.16.02.12.Badminsex.XXX.1080p.MP4-KTR
Genre.......: Adult
Files.......: 76
Video.......: MP4
Date........: 2016-04-03
URL.........: http://www.groupsexgames.com/
Starring: Kaci Starr, Ashli Orion

Video
ID                                       : 1
Format                                   : AVC
Format/Info                              : Advanced Video Codec
Format profile                           : [email protected]
Format settings, CABAC                   : No
Format settings, ReFrames                : 3 frames
Codec ID                                 : avc1
Codec ID/Info                            : Advanced Video Coding
Duration                                 : 4h 8mn
Source duration                          : 4h 8mn
Bit rate mode                            : Variable
Bit rate                                 : 7 676 Kbps
Maximum bit rate                         : 8 001 Kbps
Width                                    : 1 920 pixels
Height                                   : 1 080 pixels
Display aspect ratio                     : 16:9
Frame rate mode                          : Constant
Frame rate                               : 25.000 fps
Standard                                 : Component
Color space                              : YUV
Chroma subsampling                       : 4:2:0
Bit depth                                : 8 bits
Scan type                                : Progressive
Bits/(Pixel*Frame)                       : 0.148
Stream size                              : 13.3 GiB (94%)
Source stream size                       : 13.9 GiB (98%)
Language                                 : English
Encoded date                             : UTC 2016-01-14 18:28:20
Tagged date                              : UTC 2016-01-14 18:28:20
Color range                              : Limited
mdhd_Duration                            : 14924240
Audio
ID                                       : 2
Format                                   : AAC
Format/Info                              : Advanced Audio Codec
Format profile                           : LC
Codec ID                                 : 40
Duration                                 : 4h 8mn
Bit rate mode                            : Variable
Bit rate                                 : 128 Kbps
Maximum bit rate                         : 135 Kbps
Channel(s)                               : 2 channels
Channel positions                        : Front: L R
Sampling rate                            : 44.1 KHz
Frame rate                               : 43.066 fps (1024 spf)
Compression mode                         : Lossy
Stream size                              : 228 MiB (2%)
Language                                 : English
Encoded date                             : UTC 2016-01-14 18:28:20
Tagged date                              : UTC 2016-01-14 18:28:20
Other #1
ID                                       : 3
Type                                     : Object description
Format                                   : System Core
Codec ID                                 : 2
Duration                                 : 4h 8mn
Language                                 : English
Encoded date                             : UTC 2016-01-14 18:28:20
Tagged date                              : UTC 2016-01-14 18:28:20
mdhd_Duration                            : 1000
Other #2
ID                                       : 4
Type                                     : Scene description
Format                                   : System Core
Codec ID                                 : 2
Duration                                 : 4h 8mn
Language                                 : English
Encoded date                             : UTC 2016-01-14 18:28:20
Tagged date                              : UTC 2016-01-14 18:28:20
mdhd_Duration                            : 1000


NEW adulttorrent.org - Exclusive video only

Related Torrents
Torrent Name   AGE FILES SIZE

 Date: 06/01/18 00:15   in : XXX 

537 days 1

 Date: 06/01/18 00:12   in : XXX 

537 days 1

 Date: 06/01/18 00:09   in : XXX 

537 days 1

 Date: 06/01/18 00:07   in : XXX 

537 days 1

 Date: 06/01/18 00:04   in : XXX 

537 days 1

 Date: 06/01/18 00:03   in : XXX 

537 days 1

 Date: 06/01/18 00:02   in : XXX 

537 days 1

 Date: 06/01/18 00:02   in : XXX 

537 days 1

 Date: 05/31/18 23:59   in : XXX 

537 days 1

 Date: 05/31/18 23:51   in : XXX 

537 days 1

 Date: 05/31/18 23:51   in : XXX 

537 days 1

 Date: 05/31/18 23:50   in : XXX 

537 days 1