Direct Download ATKGirlfriends.16.01.09.Joseline.Kelly.XXX.SD.MP4-RARBG torrent

download torrent
Size: 259.4 MB
Downloaded: 44
Hits: 178


Video
ID                                       : 1
Format                                   : AVC
Format/Info                              : Advanced Video Codec
Format profile                           : [email protected]
Format settings, CABAC                   : Yes
Format settings, ReFrames                : 5 frames
Codec ID                                 : avc1
Codec ID/Info                            : Advanced Video Coding
Duration                                 : 31mn 49s
Bit rate                                 : 1 000 Kbps
Width                                    : 720 pixels
Height                                   : 400 pixels
Display aspect ratio                     : 16:9
Frame rate mode                          : Constant
Frame rate                               : 29.970 (29970/1000) fps
Color space                              : YUV
Chroma subsampling                       : 4:2:0
Bit depth                                : 8 bits
Scan type                                : Progressive
Bits/(Pixel*Frame)                       : 0.116
Stream size                              : 227 MiB (87%)
Title                                    : RARBG.COM - ATKGirlfriends.16.01.09.Joseline.Kelly.XXX.SD.MP4-RARBG
Writing library                          : x264 core 148 r2597M e86f3a1
Encoding settings                        : cabac=1 / ref=5 / deblock=1:0:0 / analyse=0x3:0x113 / me=umh / subme=8 / psy=1 / psy_rd=1.00:0.00 / mixed_ref=1 / me_range=16 / chroma_me=1 / trellis=1 / 8x8dct=1 / cqm=0 / deadzone=21,11 / fast_pskip=1 / chroma_qp_offset=-2 / threads=12 / lookahead_threads=2 / sliced_threads=0 / nr=0 / decimate=1 / interlaced=0 / bluray_compat=0 / constrained_intra=0 / bframes=3 / b_pyramid=2 / b_adapt=2 / b_bias=0 / direct=3 / weightb=1 / open_gop=0 / weightp=2 / keyint=250 / keyint_min=25 / scenecut=40 / intra_refresh=0 / rc_lookahead=50 / rc=abr / mbtree=1 / bitrate=1000 / ratetol=1.0 / qcomp=0.60 / qpmin=0 / qpmax=69 / qpstep=4 / ip_ratio=1.40 / aq=1:1.00
Encoded date                             : UTC 2016-01-09 08:16:00
Tagged date                              : UTC 2016-01-09 08:16:00
Audio
ID                                       : 2
Format                                   : AAC
Format/Info                              : Advanced Audio Codec
Format profile                           : LC
Codec ID                                 : 40
Duration                                 : 31mn 49s
Bit rate mode                            : Constant
Bit rate                                 : 132 Kbps
Channel(s)                               : 2 channels
Channel positions                        : Front: L R
Sampling rate                            : 48.0 KHz
Frame rate                               : 46.875 fps (1024 spf)
Compression mode                         : Lossy
Stream size                              : 30.4 MiB (12%)
Title                                    : RARBG.COM - ATKGirlfriends.16.01.09.Joseline.Kelly.XXX.SD.MP4-RARBG
Default                                  : Yes
Alternate group                          : 1
Encoded date                             : UTC 2016-01-09 08:16:00
Tagged date                              : UTC 2016-01-09 08:16:00

Related Torrents
Torrent Name   AGE FILES SIZE

 Date: 08/07/18 17:58   in : Handjob 

11 days 1 805.2 MB

 Date: 08/05/18 16:00   in : Handjob 

13 days 1 1.7 GB

 Date: 07/28/18 16:01   in : Handjob 

21 days 1 232.8 MB

 Date: 07/21/18 04:50   in : Handjob 

29 days 1 1.4 GB

 Date: 07/16/18 21:45   in : Handjob 

33 days 1 1.4 GB

 Date: 07/06/18 11:58   in : Handjob 

43 days 1 619.9 MB

 Date: 06/29/18 19:40   in : Handjob 

50 days 1 435.5 MB

 Date: 06/29/18 14:38   in : Handjob 

50 days 1 2.2 GB

 Date: 06/25/18 18:33   in : Handjob 

54 days 1 1.2 GB

 Date: 06/25/18 13:29   in : Handjob 

54 days 1 2.3 GB

 Date: 05/25/18 15:56   in : Handjob 

85 days 1 339 MB

 Date: 05/14/18 14:31   in : Handjob 

96 days 1 258.3 MB