Direct Download Girls.Of.Bangbros.31.Jessica.Rabbit.XXX.DVDRiP.x264-TattooLovers torrent

download torrent
Size: 2.4 GB
Downloaded: 179
Hits: 336

/_______        i    :
._______ .\'    :.   ...  __    /       /______________)         /_____________
. .      : .\'::::     /       /    _____________       /     ________
._       : : ::::    /       /                        /
.        : : ::\'    /       /      __________      __/________
.__.\'   : : \'      /       /
___________.    : \' .____________.\'________________        ______________
.  \'          .
t a t t o__O l o v e r s
Girls.Of.Bangbros.31.Jessica.Rabbit.XXX.DVDRiP.x264-TattooLovers
Release Date..: 21.04.2016
Store Date....: 26.02.2014
Runtime.......: 238 Mins
Studio........: Bang Bros.
Source........: DVD
Resolution....: 656x358 (29.970 FPS)
Bitrate.......: 1321 @ CRF-19
Language......: English
Audio.........: AAC-LC Stereo @ VBR 128 kbps
Extras........: -
Cast..........:
Mercedes Lynn, Jessica Rabbit, Megan
Link..........:
http://www.cduniverse.com/productinfo.asp?pid=9140585&style=ice
Release.Notes.: -
Searching.For.: - Money Suppliers for DVD s / BD s
- Suppliers for DVD s / BD s
- Affil Sites with XXX Archive
S!\'
\'                          :
:
:::\'
.:::::. .::::::\'
\'   ..    ...
t  a  t  t  o  o          ::    ::          l  o  v  e  r  s
.::    ::
::::    :.
\'\'
_                            _  \'
.            . \'    \"::::..         ..::::\'\"
........ :                     \' .: .:::
\' \'\'\' :  :            .        :..::\'
: :
:: :         :
:::.:.....\'
\"\"\"\"\"\"

Video
ID                                       : 1
Format                                   : AVC
Format/Info                              : Advanced Video Codec
Format profile                           : [email protected]
Format settings, CABAC                   : Yes
Format settings, ReFrames                : 5 frames
Codec ID                                 : avc1
Codec ID/Info                            : Advanced Video Coding
Duration                                 : 3h 58mn
Bit rate                                 : 1 321 Kbps
Width                                    : 656 pixels
Height                                   : 358 pixels
Display aspect ratio                     : 1.85:1
Frame rate mode                          : Constant
Frame rate                               : 29.970 (30000/1001) fps
Color space                              : YUV
Chroma subsampling                       : 4:2:0
Bit depth                                : 8 bits
Scan type                                : Progressive
Bits/(Pixel*Frame)                       : 0.188
Stream size                              : 2.20 GiB (92%)
Writing library                          : x264 core 148 r2692 64f4e24
Encoding settings                        : cabac=1 / ref=5 / deblock=1:-1:-1 / analyse=0x3:0x133 / me=umh / subme=8 / psy=1 / psy_rd=1.00:0.15 / mixed_ref=1 / me_range=16 / chroma_me=1 / trellis=1 / 8x8dct=1 / cqm=0 / deadzone=21,11 / fast_pskip=0 / chroma_qp_offset=-3 / threads=6 / lookahead_threads=1 / sliced_threads=0 / nr=0 / decimate=1 / interlaced=0 / bluray_compat=0 / constrained_intra=0 / bframes=3 / b_pyramid=2 / b_adapt=2 / b_bias=0 / direct=3 / weightb=1 / open_gop=0 / weightp=2 / keyint=300 / keyint_min=29 / scenecut=40 / intra_refresh=0 / rc_lookahead=50 / rc=crf / mbtree=1 / crf=19.0 / qcomp=0.60 / qpmin=0 / qpmax=69 / qpstep=4 / vbv_maxrate=17500 / vbv_bufsize=17500 / crf_max=0.0 / nal_hrd=none / filler=0 / ip_ratio=1.40 / aq=1:1.00
Encoded date                             : UTC 1904-01-01 00:00:00
Tagged date                              : UTC 1904-01-01 00:00:00
Audio
ID                                       : 2
Format                                   : AAC
Format/Info                              : Advanced Audio Codec
Format profile                           : LC
Codec ID                                 : 40
Duration                                 : 3h 58mn
Bit rate mode                            : Variable
Bit rate                                 : 112 Kbps
Maximum bit rate                         : 133 Kbps
Channel(s)                               : 2 channels
Channel positions                        : Front: L R
Sampling rate                            : 48.0 KHz
Frame rate                               : 46.875 fps (1024 spf)
Compression mode                         : Lossy
Stream size                              : 191 MiB (8%)
Language                                 : English
Default                                  : Yes
Alternate group                          : 1
Encoded date                             : UTC 1904-01-01 00:00:00
Tagged date                              : UTC 1904-01-01 00:00:00


NEW adulttorrent.org - Exclusive video only

Related Torrents
Torrent Name   AGE FILES SIZE

 Date: 06/01/18 00:15   in : XXX 

500 days 1

 Date: 06/01/18 00:12   in : XXX 

500 days 1

 Date: 06/01/18 00:09   in : XXX 

500 days 1

 Date: 06/01/18 00:07   in : XXX 

500 days 1

 Date: 06/01/18 00:04   in : XXX 

500 days 1

 Date: 06/01/18 00:03   in : XXX 

500 days 1

 Date: 06/01/18 00:02   in : XXX 

500 days 1

 Date: 06/01/18 00:02   in : XXX 

500 days 1

 Date: 05/31/18 23:59   in : XXX 

500 days 1

 Date: 05/31/18 23:51   in : XXX 

500 days 1

 Date: 05/31/18 23:51   in : XXX 

500 days 1

 Date: 05/31/18 23:50   in : XXX 

500 days 1