Direct Download GFRevenge.16.04.18.Dip.It.In.Dia.XXX.HR.MP4-KTR torrent

download torrent
Size: 279 MB
Downloaded: 76
Hits: 196

GFRevenge.16.04.18.Dip.It.In.Dia.XXX.HR.MP4-KTR
Genre.......: Adult
Files.......: 20
Video.......: MP4
Date........: 2016-04-22
URL.........: http://www.gfrevenge.com/

Video
ID                                       : 1
Format                                   : AVC
Format/Info                              : Advanced Video Codec
Format profile                           : [email protected]
Format settings, CABAC                   : No
Format settings, ReFrames                : 6 frames
Format settings, GOP                     : M=2, N=100
Codec ID                                 : avc1
Codec ID/Info                            : Advanced Video Coding
Duration                                 : 25mn 17s
Bit rate mode                            : Variable
Bit rate                                 : 1 500 Kbps
Width                                    : 768 pixels
Height                                   : 432 pixels
Display aspect ratio                     : 16:9
Frame rate mode                          : Variable
Frame rate                               : 30.000 fps
Minimum frame rate                       : 29.412 fps
Maximum frame rate                       : 30.303 fps
Standard                                 : Component
Color space                              : YUV
Chroma subsampling                       : 4:2:0
Bit depth                                : 8 bits
Scan type                                : Progressive
Bits/(Pixel*Frame)                       : 0.151
Stream size                              : 272 MiB (97%)
Encoded date                             : UTC 1904-01-01 00:00:00
Tagged date                              : UTC 1904-01-01 00:00:00
Color range                              : Limited
Audio
ID                                       : 2
Format                                   : AAC
Format/Info                              : Advanced Audio Codec
Format profile                           : LC
Codec ID                                 : 40
Duration                                 : 25mn 17s
Bit rate mode                            : Constant
Bit rate                                 : 32.0 Kbps
Channel(s)                               : 2 channels
Channel(s)_Original                      : 1 channel
Channel positions                        : Front: C
Sampling rate                            : 32.0 KHz
Frame rate                               : 31.250 fps (1024 spf)
Compression mode                         : Lossy
Stream size                              : 5.79 MiB (2%)
Default                                  : Yes
Alternate group                          : 1
Encoded date                             : UTC 1904-01-01 00:00:00
Tagged date                              : UTC 1904-01-01 00:00:00


NEW adulttorrent.org - Exclusive video only

Related Torrents
Torrent Name   AGE FILES SIZE

 Date: 06/01/18 00:15   in : XXX 

507 days 1

 Date: 06/01/18 00:12   in : XXX 

507 days 1

 Date: 06/01/18 00:09   in : XXX 

507 days 1

 Date: 06/01/18 00:07   in : XXX 

507 days 1

 Date: 06/01/18 00:04   in : XXX 

507 days 1

 Date: 06/01/18 00:03   in : XXX 

507 days 1

 Date: 06/01/18 00:02   in : XXX 

507 days 1

 Date: 06/01/18 00:02   in : XXX 

507 days 1

 Date: 05/31/18 23:59   in : XXX 

507 days 1

 Date: 05/31/18 23:51   in : XXX 

507 days 1

 Date: 05/31/18 23:51   in : XXX 

507 days 1

 Date: 05/31/18 23:50   in : XXX 

507 days 1