Direct Download Gazongas 15 2016 XXX WEB-DL SPLIT SCENES torrent

download torrent
Size: 1.5 GB
Downloaded: 74
Hits: 128

Video
ID                                       : 1
Format                                   : AVC
Format/Info                              : Advanced Video Codec
Format profile                           : [email protected]
Format settings, CABAC                   : Yes
Format settings, ReFrames                : 4 frames
Codec ID                                 : avc1
Codec ID/Info                            : Advanced Video Coding
Duration                                 : 30mn 21s
Bit rate                                 : 1 405 Kbps
Width                                    : 852 pixels
Height                                   : 480 pixels
Display aspect ratio                     : 16:9
Original display aspect ratio            : 16:9
Frame rate mode                          : Constant
Frame rate                               : 30.000 fps
Color space                              : YUV
Chroma subsampling                       : 4:2:0
Bit depth                                : 8 bits
Scan type                                : Progressive
Bits/(Pixel*Frame)                       : 0.115
Stream size                              : 305 MiB (93%)
Tagged date                              : UTC 2016-04-06 18:20:13
Audio
ID                                       : 2
Format                                   : AAC
Format/Info                              : Advanced Audio Codec
Format profile                           : LC
Codec ID                                 : 40
Duration                                 : 30mn 21s
Bit rate mode                            : Constant
Bit rate                                 : 96.0 Kbps
Channel(s)                               : 2 channels
Channel positions                        : Front: L R
Sampling rate                            : 44.1 KHz
Compression mode                         : Lossy
Stream size                              : 20.8 MiB (6%)
Tagged date                              : UTC 2016-04-06 18:20:13


NEW adulttorrent.org - Exclusive video only

Related Torrents
Torrent Name   AGE FILES SIZE

 Date: 06/01/18 00:15   in : XXX 

509 days 1

 Date: 06/01/18 00:12   in : XXX 

509 days 1

 Date: 06/01/18 00:09   in : XXX 

509 days 1

 Date: 06/01/18 00:07   in : XXX 

509 days 1

 Date: 06/01/18 00:04   in : XXX 

509 days 1

 Date: 06/01/18 00:03   in : XXX 

509 days 1

 Date: 06/01/18 00:02   in : XXX 

509 days 1

 Date: 06/01/18 00:02   in : XXX 

509 days 1

 Date: 05/31/18 23:59   in : XXX 

509 days 1

 Date: 05/31/18 23:51   in : XXX 

509 days 1

 Date: 05/31/18 23:51   in : XXX 

509 days 1

 Date: 05/31/18 23:50   in : XXX 

509 days 1