Direct Download GangbangCreampie.15.05.09.Gangbang.Creampie.Girl.5.XXX.1080p.MP4-KTR torrent

download torrent
Size: 1.4 GB
Downloaded: 282
Hits: 432

GangbangCreampie.15.05.09.Gangbang.Creampie.Girl.5.XXX.1080p.
MP4-KTR
Genre.......: Adult
Files.......: 30
Video.......: MP4
Date........: 2015-07-11
URL.........: http://www.gangbangcreampie.com/tour/index.php
More Info: http://www.gangbangcreampie.com/tour/trailer.php?id=4

Video
ID                                       : 1
Format                                   : AVC
Format/Info                              : Advanced Video Codec
Format profile                           : [email protected]
Format settings, CABAC                   : Yes
Format settings, ReFrames                : 3 frames
Format settings, GOP                     : M=3, N=30
Codec ID                                 : avc1
Codec ID/Info                            : Advanced Video Coding
Duration                                 : 45mn 2s
Bit rate mode                            : Variable
Bit rate                                 : 4 012 Kbps
Maximum bit rate                         : 8 000 Kbps
Width                                    : 1 920 pixels
Height                                   : 1 080 pixels
Display aspect ratio                     : 16:9
Frame rate mode                          : Constant
Frame rate                               : 29.970 fps
Standard                                 : NTSC
Color space                              : YUV
Chroma subsampling                       : 4:2:0
Bit depth                                : 8 bits
Scan type                                : Progressive
Bits/(Pixel*Frame)                       : 0.065
Stream size                              : 1.26 GiB (92%)
Language                                 : English
Encoded date                             : UTC 1904-01-01 00:00:00
Tagged date                              : UTC 1904-01-01 00:00:00
Color range                              : Limited
Color primaries                          : BT.709
Transfer characteristics                 : BT.709
Matrix coefficients                      : BT.709
Audio
ID                                       : 2
Format                                   : AAC
Format/Info                              : Advanced Audio Codec
Format profile                           : LC
Codec ID                                 : 40
Duration                                 : 45mn 2s
Bit rate mode                            : Constant
Bit rate                                 : 318 Kbps
Channel(s)                               : 2 channels
Channel positions                        : Front: L R
Sampling rate                            : 44.1 KHz
Compression mode                         : Lossy
Stream size                              : 102 MiB (7%)
Language                                 : English
Encoded date                             : UTC 1904-01-01 00:00:00
Tagged date                              : UTC 1904-01-01 00:00:00


NEW adulttorrent.org - Exclusive video only

Related Torrents
Torrent Name   AGE FILES SIZE

 Date: 03/05/21 06:14   in : XXX 

13 hours 1

 Date: 03/05/21 06:11   in : XXX 

13 hours 1

 Date: 03/05/21 06:08   in : XXX 

13 hours 1

 Date: 03/05/21 06:07   in : XXX 

13 hours 1

 Date: 03/05/21 06:05   in : XXX 

13 hours 1

 Date: 03/05/21 05:58   in : XXX 

13 hours 1

 Date: 03/05/21 05:55   in : XXX 

14 hours 1

 Date: 03/05/21 05:53   in : XXX 

14 hours 1

 Date: 03/05/21 05:50   in : XXX 

14 hours 1

 Date: 03/05/21 05:48   in : XXX 

14 hours 1

 Date: 03/05/21 05:41   in : XXX 

14 hours 1

 Date: 03/05/21 05:36   in : XXX 

14 hours 1


Copyright © OnceSearch.com 2015-2019. OnceSearch.com provides only meta files (small .torrent files) on its web site, and hosts no actual file for download!!!