Direct Download The Gangbang - 2016 Perfect Gonzo Web-DL Split Scenes mp4 torrent

download torrent
Size: 1.7 GB
Downloaded: 200
Hits: 196
   
Cast:
Anita Bellini, Sabby, Lauro Giotto, Antonio Ross, Renato, Victor Solo

Format                                   : MPEG-4
Codec ID                                 : M4V
File size                                : 928 MiB
Duration                                 : 48mn 34s
Overall bit rate mode                    : Variable
Overall bit rate                         : 2 671 Kbps
Encoded date                             : UTC 2015-12-30 03:04:21
Tagged date                              : UTC 2015-12-30 03:05:05
?TIM                                     : 00:00:00:00
?TSC                                     : 30000
?TSZ                                     : 1001
Video
ID                                       : 1
Format                                   : AVC
Format/Info                              : Advanced Video Codec
Format profile                           : [email protected]
Format settings, CABAC                   : No
Format settings, ReFrames                : 2 frames
Format settings, GOP                     : M=1, N=30
Codec ID                                 : avc1
Codec ID/Info                            : Advanced Video Coding
Duration                                 : 48mn 34s
Bit rate mode                            : Variable
Bit rate                                 : 2 510 Kbps
Maximum bit rate                         : 3 000 Kbps
Width                                    : 960 pixels
Height                                   : 540 pixels
Display aspect ratio                     : 16:9
Frame rate mode                          : Constant
Frame rate                               : 29.970 fps
Standard                                 : NTSC
Color space                              : YUV
Chroma subsampling                       : 4:2:0
Bit depth                                : 8 bits
Scan type                                : Progressive
Bits/(Pixel*Frame)                       : 0.162
Stream size                              : 872 MiB (94%)
Language                                 : English
Encoded date                             : UTC 2015-12-30 03:04:21
Tagged date                              : UTC 2015-12-30 03:04:21
Audio
ID                                       : 2
Format                                   : AAC
Format/Info                              : Advanced Audio Codec
Format profile                           : LC
Codec ID                                 : 40
Duration                                 : 48mn 34s
Source duration                          : 48mn 34s
Bit rate mode                            : Variable
Bit rate                                 : 157 Kbps
Maximum bit rate                         : 257 Kbps
Channel(s)                               : 2 channels
Channel positions                        : Front: L R
Sampling rate                            : 48.0 KHz
Compression mode                         : Lossy
Stream size                              : 54.7 MiB (6%)
Source stream size                       : 54.7 MiB
Language                                 : English
Encoded date                             : UTC 2015-12-30 03:04:21
Tagged date                              : UTC 2015-12-30 03:04:21


NEW adulttorrent.org - Exclusive video only

Related Torrents
Torrent Name   AGE FILES SIZE

 Date: 06/01/18 00:15   in : XXX 

534 days 1

 Date: 06/01/18 00:12   in : XXX 

534 days 1

 Date: 06/01/18 00:09   in : XXX 

534 days 1

 Date: 06/01/18 00:07   in : XXX 

534 days 1

 Date: 06/01/18 00:04   in : XXX 

534 days 1

 Date: 06/01/18 00:03   in : XXX 

534 days 1

 Date: 06/01/18 00:02   in : XXX 

534 days 1

 Date: 06/01/18 00:02   in : XXX 

534 days 1

 Date: 05/31/18 23:59   in : XXX 

534 days 1

 Date: 05/31/18 23:51   in : XXX 

534 days 1

 Date: 05/31/18 23:51   in : XXX 

534 days 1

 Date: 05/31/18 23:50   in : XXX 

534 days 1