Direct Download Amateur Sextape - 22 Videos Video Pack Vol. 3 torrent

download torrent
Size: 2.1 GB
Downloaded: 41
Hits: 277

Video
ID                                       : 0
Format                                   : MPEG-4 Visual
Format settings, BVOP                    : No
Format settings, QPel                    : No
Format settings, GMC                     : No warppoints
Format settings, Matrix                  : Default (H.263)
Codec ID                                 : DX50
Codec ID/Hint                            : DivX 5
Duration                                 : 14mn 31s
Bit rate                                 : 649 Kbps
Width                                    : 640 pixels
Height                                   : 480 pixels
Display aspect ratio                     : 4:3
Frame rate                               : 25.000 fps
Color space                              : YUV
Chroma subsampling                       : 4:2:0
Bit depth                                : 8 bits
Scan type                                : Progressive
Compression mode                         : Lossy
Bits/(Pixel*Frame)                       : 0.085
Stream size                              : 67.5 MiB (92%)
Writing library                          : DivX 6.2.2 (UTC 2006-04-26)
Audio
ID                                       : 1
Format                                   : MPEG Audio
Format version                           : Version 2
Format profile                           : Layer 3
Mode                                     : Joint stereo
Mode extension                           : Intensity Stereo + MS Stereo
Codec ID                                 : 55
Codec ID/Hint                            : MP3
Duration                                 : 14mn 27s
Bit rate mode                            : Constant
Bit rate                                 : 48.0 Kbps
Channel(s)                               : 2 channels
Sampling rate                            : 22.05 KHz
Compression mode                         : Lossy
Stream size                              : 4.96 MiB (7%)
Alignment                                : Split accross interleaves
Interleave, duration                     : 1004 ms (25.09 video frames)
Interleave, preload duration             : 750 ms

Related Torrents
Torrent Name   AGE FILES SIZE

 Date: 04/27/16 18:22   in : Gangbang 

635 days 3 1.4 GB

 Date: 04/26/16 12:08   in : Gangbang 

636 days 1 1.6 GB

 Date: 04/21/16 23:51   in : Gangbang 

641 days 1

 Date: 04/21/16 19:04   in : Gangbang 

641 days 1

 Date: 04/19/16 10:26   in : Gangbang 

643 days 1

 Date: 04/19/16 00:44   in : Gangbang 

644 days 3 554.9 MB

 Date: 04/18/16 19:17   in : Gangbang 

644 days 1 1.9 GB

 Date: 04/18/16 05:25   in : Gangbang 

645 days 2 1.2 GB

 Date: 04/17/16 22:29   in : Gangbang 

645 days 1 1.4 GB

 Date: 04/17/16 22:05   in : Gangbang 

645 days 1 2.5 GB

 Date: 04/17/16 21:57   in : Gangbang 

645 days 1 485.2 MB

 Date: 04/17/16 14:42   in : Gangbang 

645 days 1 1.1 GB