Direct Download G-Queen.16.03.22.Haruka.Amane.Courzieu.2.JAP.XXX.720p.WMV-OHRLY torrent

download torrent
Size: 225.9 MB
Downloaded: 135
Hits: 284

RELEASE iNFORMATiONS
G-Queen.16.03.22.Haruka.Amane.Courzieu.2.JAP.XXX.720p.WMV-OHRLY
RELEASE.DATE.: 16.04.03                    FORMAT.....: .wmv
SiTE.DATE....: 16.03.19                    RESOLUTiON.: 1280x720
GENRE........: Asian Girls                 SiZE.......: 17x15mb
SOURCE.......: http://www2.g-queen.com
GREETZ GOES TO
READ NFO            ARF ME SUiS TROMPE           GROUP NEWS
GENiES ET LE GAiTZ
Yes read it!

Video
ID                                       : 1
Format                                   : VC-1
Format profile                           : Main
Codec ID                                 : WMV3
Codec ID/Info                            : Windows Media Video 9
Codec ID/Hint                            : WMV3
Description of the codec                 : wmv3
Duration                                 : 15mn 12s
Bit rate                                 : 1 858 Kbps
Width                                    : 1 280 pixels
Height                                   : 720 pixels
Display aspect ratio                     : 16:9
Frame rate                               : 29.970 (30000/1001) fps
Color space                              : YUV
Chroma subsampling                       : 4:2:0
Bit depth                                : 8 bits
Scan type                                : Progressive
Compression mode                         : Lossy
Bits/(Pixel*Frame)                       : 0.067
Stream size                              : 202 MiB (89%)
Audio
ID                                       : 2
Format                                   : WMA
Format version                           : Version 2
Codec ID                                 : 161
Codec ID/Info                            : Windows Media Audio
Description of the codec                 : Windows Media Audio V8
Duration                                 : 15mn 12s
Bit rate                                 : 128 Kbps
Channel(s)                               : 2 channels
Sampling rate                            : 48.0 KHz
Bit depth                                : 16 bits
Stream size                              : 13.9 MiB (6%)


NEW adulttorrent.org - Exclusive video only

Related Torrents
Torrent Name   AGE FILES SIZE

 Date: 06/01/18 00:15   in : XXX 

529 days 1

 Date: 06/01/18 00:12   in : XXX 

529 days 1

 Date: 06/01/18 00:09   in : XXX 

529 days 1

 Date: 06/01/18 00:07   in : XXX 

529 days 1

 Date: 06/01/18 00:04   in : XXX 

529 days 1

 Date: 06/01/18 00:03   in : XXX 

529 days 1

 Date: 06/01/18 00:02   in : XXX 

529 days 1

 Date: 06/01/18 00:02   in : XXX 

529 days 1

 Date: 05/31/18 23:59   in : XXX 

529 days 1

 Date: 05/31/18 23:51   in : XXX 

529 days 1

 Date: 05/31/18 23:51   in : XXX 

529 days 1

 Date: 05/31/18 23:50   in : XXX 

529 days 1