NEW BEST ADULT Torrent..Tsss....only for you!

Direct Download Oldje.Julie.Skyhigh.Chasing.Young.Birds.mp4 torrent

download torrent
Size: 1.1 GB
Downloaded: 217
Hits: 1082


Video
ID                                       : 1
Format                                   : AVC
Format/Info                              : Advanced Video Codec
Format profile                           : [email protected]
Format settings, CABAC                   : Yes
Format settings, ReFrames                : 4 frames
Codec ID                                 : avc1
Codec ID/Info                            : Advanced Video Coding
Duration                                 : 20mn 26s
Bit rate mode                            : Variable
Bit rate                                 : 7 647 Kbps
Width                                    : 1 920 pixels
Height                                   : 1 080 pixels
Display aspect ratio                     : 16:9
Frame rate mode                          : Variable
Frame rate                               : 25.000 fps
Minimum frame rate                       : 25.000 fps
Maximum frame rate                       : 12 800.000 fps
Color space                              : YUV
Chroma subsampling                       : 4:2:0
Bit depth                                : 8 bits
Scan type                                : Progressive
Bits/(Pixel*Frame)                       : 0.148
Stream size                              : 1.09 GiB (98%)
Writing library                          : x264 core 148 r2597 e86f3a1
Encoding settings                        : cabac=1 / ref=2 / deblock=1:0:0 / analyse=0x3:0x113 / me=hex / subme=4 / psy=1 / psy_rd=1.00:0.00 / mixed_ref=0 / me_range=16 / chroma_me=1 / trellis=1 / 8x8dct=1 / cqm=0 / deadzone=21,11 / fast_pskip=1 / chroma_qp_offset=0 / threads=12 / lookahead_threads=3 / sliced_threads=0 / nr=0 / decimate=1 / interlaced=0 / bluray_compat=0 / constrained_intra=0 / bframes=3 / b_pyramid=2 / b_adapt=1 / b_bias=0 / direct=1 / weightb=1 / open_gop=0 / weightp=1 / keyint=250 / keyint_min=25 / scenecut=40 / intra_refresh=0 / rc_lookahead=20 / rc=crf / mbtree=1 / crf=21.0 / qcomp=0.60 / qpmin=0 / qpmax=69 / qpstep=4 / vbv_maxrate=8000 / vbv_bufsize=5835 / crf_max=0.0 / nal_hrd=none / filler=0 / ip_ratio=1.40 / aq=1:1.00
Language                                 : English
Audio
ID                                       : 2
Format                                   : AAC
Format/Info                              : Advanced Audio Codec
Format profile                           : LC
Codec ID                                 : 40
Duration                                 : 20mn 26s
Bit rate mode                            : Constant
Bit rate                                 : 127 Kbps
Channel(s)                               : 2 channels
Channel positions                        : Front: L R
Sampling rate                            : 48.0 KHz
Compression mode                         : Lossy
Stream size                              : 18.6 MiB (2%)
Language                                 : English

NEW adulttorrent.org - Exclusive video only

Related Torrents
Torrent Name   AGE FILES SIZE

 Date: 04/21/19 16:03   in : Teen 

1 day 1 699.5 MB

 Date: 04/21/19 03:46   in : Teen 

2 days 1 368.6 MB

 Date: 04/20/19 15:43   in : Teen 

2 days 1 189.4 MB

 Date: 04/16/19 19:47   in : Teen 

6 days 4 3.5 GB

 Date: 04/16/19 18:40   in : Teen 

6 days 1 312.7 MB

 Date: 04/16/19 16:59   in : Teen 

6 days 3 2.9 GB

 Date: 04/16/19 16:57   in : Teen 

6 days 3 2.9 GB

 Date: 04/16/19 15:06   in : Teen 

6 days 1 300.1 MB

 Date: 04/16/19 14:41   in : Teen 

6 days 1 182.9 MB

 Date: 04/16/19 14:35   in : Teen 

6 days 1 607.3 MB

 Date: 04/16/19 14:12   in : Teen 

6 days 1 339.2 MB

 Date: 04/15/19 17:16   in : Teen 

7 days 1 38.5 MB