NEW BEST ADULT Torrent..Tsss....only for you!

Direct Download PlumperPass.16.10.14.Bunny.De.La.Cruz.Hurricane.Bunny.XXX.1080p.MP4-KTR torrent

download torrent
Size: 2.5 GB
Downloaded: 75
Hits: 192

PlumperPass.16.10.14.Bunny.De.La.Cruz.Hurricane.Bunny.XXX.
1080p.MP4-KTR
Genre.......: Adult
Files.......: 55
Video.......: MP4
Date........: 2016-10-14
URL.........: http://www.plumperpass.com/

Video
ID                                       : 1
Format                                   : AVC
Format/Info                              : Advanced Video Codec
Format profile                           : [email protected]
Format settings, CABAC                   : Yes
Format settings, ReFrames                : 3 frames
Codec ID                                 : avc1
Codec ID/Info                            : Advanced Video Coding
Duration                                 : 36mn 18s
Bit rate mode                            : Variable
Bit rate                                 : 9 618 Kbps
Maximum bit rate                         : 10 000 Kbps
Width                                    : 1 920 pixels
Height                                   : 1 080 pixels
Display aspect ratio                     : 16:9
Frame rate mode                          : Constant
Frame rate                               : 29.970 (30000/1001) fps
Standard                                 : NTSC
Color space                              : YUV
Chroma subsampling                       : 4:2:0
Bit depth                                : 8 bits
Scan type                                : Progressive
Bits/(Pixel*Frame)                       : 0.155
Stream size                              : 2.44 GiB (97%)
Encoded date                             : UTC 1904-01-01 00:00:00
Tagged date                              : UTC 1904-01-01 00:00:00
Color range                              : Limited
Color primaries                          : BT.709
Transfer characteristics                 : BT.709
Matrix coefficients                      : BT.709
Audio
ID                                       : 2
Format                                   : AAC
Format/Info                              : Advanced Audio Codec
Format profile                           : LC
Codec ID                                 : 40
Duration                                 : 36mn 18s
Bit rate mode                            : Constant
Bit rate                                 : 317 Kbps
Channel(s)                               : 2 channels
Channel positions                        : Front: L R
Sampling rate                            : 48.0 KHz
Frame rate                               : 46.875 fps (1024 spf)
Compression mode                         : Lossy
Stream size                              : 82.4 MiB (3%)
Default                                  : Yes
Alternate group                          : 1
Encoded date                             : UTC 1904-01-01 00:00:00
Tagged date                              : UTC 1904-01-01 00:00:00

NEW adulttorrent.org - Exclusive video only


These girls are looking for real love!

Related Torrents
Torrent Name   AGE FILES SIZE

 Date: 01/21/19 21:46   in : Teen 

17 hours 1 621 MB

 Date: 01/21/19 16:35   in : Teen 

23 hours 1 415.9 MB

 Date: 01/21/19 14:10   in : Teen 

1 day 1 395.6 MB

 Date: 01/21/19 11:09   in : Teen 

1 day 1 1.3 GB

 Date: 01/20/19 12:38   in : Teen 

2 days 2 308.4 MB

 Date: 01/20/19 12:36   in : Teen 

2 days 2 213.3 MB

 Date: 01/20/19 12:35   in : Teen 

2 days 2 418.9 MB

 Date: 01/19/19 21:30   in : Teen 

2 days 1 946.2 MB

 Date: 01/19/19 17:39   in : Teen 

2 days 1 212.8 MB

 Date: 01/19/19 13:18   in : Teen 

3 days 2 534.3 MB

 Date: 01/19/19 12:11   in : Teen 

3 days 1 335.5 MB

 Date: 01/19/19 09:16   in : Teen 

3 days 1 433.4 MB