Direct Download FakeAgentUK.E181.Office.Sex.And.Anal.Action.For.Hot.Chilean.MILF.XXX.1080p.MOV-KTR torrent

download torrent
Size: 1.7 GB
Downloaded: 292
Hits: 2099

FakeAgentUK.E181.Office.Sex.And.Anal.Action.For.Hot.Chilean.
MILF.XXX.1080p.MOV-KTR
Genre.......: Adult
Files.......: 37
Video.......: MOV
Date........: 2015-07-04
URL.........: http://fakeagentuk.com/

Video
ID                                       : 1
Format                                   : AVC
Format/Info                              : Advanced Video Codec
Format profile                           : [email protected]
Format settings, CABAC                   : No
Format settings, ReFrames                : 2 frames
Format settings, GOP                     : M=2, N=50
Codec ID                                 : avc1
Codec ID/Info                            : Advanced Video Coding
Duration                                 : 39mn 55s
Bit rate                                 : 6 021 Kbps
Width                                    : 1 920 pixels
Clean aperture width                     : 1 888 pixels
Height                                   : 1 080 pixels
Clean aperture height                    : 1 062 pixels
Display aspect ratio                     : 16:9
Frame rate mode                          : Constant
Frame rate                               : 25.000 fps
Color space                              : YUV
Chroma subsampling                       : 4:2:0
Bit depth                                : 8 bits
Scan type                                : Progressive
Bits/(Pixel*Frame)                       : 0.116
Stream size                              : 1.68 GiB (98%)
Language                                 : English
Encoded date                             : UTC 2015-06-12 04:29:20
Tagged date                              : UTC 2015-06-12 04:33:10
Color range                              : Limited
Color primaries                          : BT.709
Transfer characteristics                 : BT.709
Matrix coefficients                      : BT.709
Audio
ID                                       : 2
Format                                   : AAC
Format/Info                              : Advanced Audio Codec
Format profile                           : LC
Codec ID                                 : 40
Duration                                 : 39mn 55s
Bit rate mode                            : Constant
Bit rate                                 : 128 Kbps
Channel(s)                               : 2 channels
Channel positions                        : Front: L R
Sampling rate                            : 44.1 KHz
Compression mode                         : Lossy
Stream size                              : 35.9 MiB (2%)
Language                                 : English
Encoded date                             : UTC 2015-06-12 04:29:21
Tagged date                              : UTC 2015-06-12 04:33:10


Related Torrents
Torrent Name   AGE FILES SIZE

 Date: 09/20/17 06:29   in : XXX 

17 hours 1 2 GB

 Date: 09/20/17 06:29   in : XXX 

17 hours 1 1.7 GB

 Date: 09/20/17 06:26   in : XXX 

17 hours 1

 Date: 09/20/17 06:25   in : XXX 

17 hours 1

 Date: 09/20/17 06:20   in : XXX 

17 hours 4 1.2 GB

 Date: 09/20/17 06:19   in : XXX 

17 hours 1

 Date: 09/20/17 06:08   in : XXX 

18 hours 1

 Date: 09/20/17 06:07   in : XXX 

18 hours 1

 Date: 09/20/17 06:00   in : XXX 

18 hours 1 1.4 GB

 Date: 09/20/17 05:59   in : XXX 

18 hours 1 1.6 GB

 Date: 09/20/17 05:57   in : XXX 

18 hours 2 1.7 GB

 Date: 09/20/17 05:56   in : XXX 

18 hours 1