Direct Download FakeAgentUK - Debby Pleasure, Mila Milan - Threesome with Dutch Porn Models torrent

download torrent
Size: 236.7 MB
Downloaded: 82
Hits: 158

Video
ID                                       : 1
Format                                   : AVC
Format/Info                              : Advanced Video Codec
Format profile                           : [email protected]
Format settings, CABAC                   : No
Format settings, ReFrames                : 5 frames
Format settings, GOP                     : M=1, N=60
Codec ID                                 : avc1
Codec ID/Info                            : Advanced Video Coding
Duration                                 : 32mn 7s
Bit rate                                 : 850 Kbps
Width                                    : 640 pixels
Height                                   : 368 pixels
Display aspect ratio                     : 16:9
Original display aspect ratio            : 16:9
Frame rate mode                          : Constant
Frame rate                               : 25.000 fps
Color space                              : YUV
Chroma subsampling                       : 4:2:0
Bit depth                                : 8 bits
Scan type                                : Progressive
Bits/(Pixel*Frame)                       : 0.144
Stream size                              : 197 MiB (83%)
Writing library                          : x264 core 142 r2389 956c8d8
Encoding settings                        : cabac=0 / ref=5 / deblock=1:0:0 / analyse=0x1:0x111 / me=umh / subme=8 / psy=1 / psy_rd=1.00:0.00 / mixed_ref=1 / me_range=16 / chroma_me=1 / trellis=1 / 8x8dct=0 / cqm=0 / deadzone=21,11 / fast_pskip=1 / chroma_qp_offset=-2 / threads=48 / lookahead_threads=2 / sliced_threads=0 / nr=0 / decimate=1 / interlaced=0 / bluray_compat=0 / constrained_intra=0 / bframes=0 / weightp=0 / keyint=60 / keyint_min=6 / scenecut=40 / intra_refresh=0 / rc_lookahead=50 / rc=abr / mbtree=1 / bitrate=850 / ratetol=1.0 / qcomp=0.60 / qpmin=0 / qpmax=69 / qpstep=4 / ip_ratio=1.40 / aq=1:1.00
Tagged date                              : UTC 2016-05-03 19:27:54
Audio
ID                                       : 2
Format                                   : AAC
Format/Info                              : Advanced Audio Codec
Format profile                           : LC
Codec ID                                 : 40
Duration                                 : 32mn 7s
Duration_LastFrame                       : -9ms
Bit rate mode                            : Constant
Bit rate                                 : 128 Kbps
Channel(s)                               : 2 channels
Channel positions                        : Front: L R
Sampling rate                            : 48.0 KHz
Compression mode                         : Lossy
Stream size                              : 29.4 MiB (12%)
Language                                 : English
Tagged date                              : UTC 2016-05-03 19:27:54


NEW adulttorrent.org - Exclusive video only

Related Torrents
Torrent Name   AGE FILES SIZE

 Date: 06/01/18 00:15   in : XXX 

475 days 1

 Date: 06/01/18 00:12   in : XXX 

475 days 1

 Date: 06/01/18 00:09   in : XXX 

475 days 1

 Date: 06/01/18 00:07   in : XXX 

475 days 1

 Date: 06/01/18 00:04   in : XXX 

475 days 1

 Date: 06/01/18 00:03   in : XXX 

475 days 1

 Date: 06/01/18 00:02   in : XXX 

475 days 1

 Date: 06/01/18 00:02   in : XXX 

475 days 1

 Date: 05/31/18 23:59   in : XXX 

475 days 1

 Date: 05/31/18 23:51   in : XXX 

475 days 1

 Date: 05/31/18 23:51   in : XXX 

475 days 1

 Date: 05/31/18 23:50   in : XXX 

475 days 1