Direct Download Ex-Girlfriends - Jimena Lago - Unfaithful Dream mp4 torrent

download torrent
Size: 840.4 MB
Downloaded: 202
Hits: 281

Trying to hide you\'ve been unfaithful to your partner is something extremely difficult. You can be caught red-handed by someone you know or you may be prey to your subconscious that betrays you. That\'s exactly what happened to Juan, who called Andrea in his dreams while he was sleeping, but Jimena was still awake and she got terribly angry. Fortunately, he knows exactly what is needed to make his girl forget about everything: a great cunnilingus. The perfect prelude for an intense fuck crowned with a liberating orgasm.

Format                                   : MPEG-4
Format profile                           : Base Media / Version 2
Codec ID                                 : mp42
File size                                : 840 MiB
Duration                                 : 29mn 16s
Overall bit rate mode                    : Variable
Overall bit rate                         : 4 013 Kbps
Encoded date                             : UTC 2016-03-29 16:28:52
Tagged date                              : UTC 2016-03-29 16:28:52
?TIM                                     : 00:00:00:00
?TSC                                     : 25
?TSZ                                     : 1
Video
ID                                       : 1
Format                                   : AVC
Format/Info                              : Advanced Video Codec
Format profile                           : [email protected]
Format settings, CABAC                   : Yes
Format settings, ReFrames                : 3 frames
Format settings, GOP                     : M=3, N=33
Codec ID                                 : avc1
Codec ID/Info                            : Advanced Video Coding
Duration                                 : 29mn 16s
Bit rate                                 : 3 883 Kbps
Width                                    : 1 280 pixels
Height                                   : 720 pixels
Display aspect ratio                     : 16:9
Frame rate mode                          : Constant
Frame rate                               : 25.000 fps
Standard                                 : PAL
Color space                              : YUV
Chroma subsampling                       : 4:2:0
Bit depth                                : 8 bits
Scan type                                : Progressive
Bits/(Pixel*Frame)                       : 0.169
Stream size                              : 813 MiB (97%)
Language                                 : English
Encoded date                             : UTC 2016-03-29 16:28:52
Tagged date                              : UTC 2016-03-29 16:28:52
Color primaries                          : BT.709-5, BT.1361, IEC 61966-2-4, SMPTE RP177
Transfer characteristics                 : BT.709-5, BT.1361
Matrix coefficients                      : BT.709-5, BT.1361, IEC 61966-2-4 709, SMPTE RP177
Audio
ID                                       : 2
Format                                   : AAC
Format/Info                              : Advanced Audio Codec
Format profile                           : LC
Codec ID                                 : 40
Duration                                 : 29mn 16s
Source duration                          : 29mn 16s
Bit rate mode                            : Variable
Bit rate                                 : 125 Kbps
Maximum bit rate                         : 202 Kbps
Channel(s)                               : 2 channels
Channel positions                        : Front: L R
Sampling rate                            : 48.0 KHz
Compression mode                         : Lossy
Stream size                              : 26.3 MiB (3%)
Source stream size                       : 26.3 MiB
Language                                 : English
Encoded date                             : UTC 2016-03-29 16:28:52
Tagged date                              : UTC 2016-03-29 16:28:52


NEW adulttorrent.org - Exclusive video only

Related Torrents
Torrent Name   AGE FILES SIZE

 Date: 06/01/18 00:15   in : XXX 

500 days 1

 Date: 06/01/18 00:12   in : XXX 

500 days 1

 Date: 06/01/18 00:09   in : XXX 

500 days 1

 Date: 06/01/18 00:07   in : XXX 

500 days 1

 Date: 06/01/18 00:04   in : XXX 

500 days 1

 Date: 06/01/18 00:03   in : XXX 

500 days 1

 Date: 06/01/18 00:02   in : XXX 

500 days 1

 Date: 06/01/18 00:02   in : XXX 

500 days 1

 Date: 05/31/18 23:59   in : XXX 

500 days 1

 Date: 05/31/18 23:51   in : XXX 

500 days 1

 Date: 05/31/18 23:51   in : XXX 

500 days 1

 Date: 05/31/18 23:50   in : XXX 

500 days 1