Direct Download ATKExotics 15 08 23 Rain Interview XXX 1080p torrent

download torrent
Size: 707.5 MB
Downloaded: 73
Hits: 272
http://goimg.xyz/img-55d9706b8c583.html
General
Complete name : ATKExotics.15.08.23.Rain.Interview.XXX.1080p.mp4
Format : MPEG-4
Format profile : Base Media
Codec ID : isom
File size : 707 MiB
Duration : 16mn 7s
Overall bit rate mode : Variable
Overall bit rate : 6 133 Kbps
Movie name : PornFlix.To ATKExotics.15.08.23.Rain.Interview.XXX
Writing application : Lavf56.40.101
Comment : pORNfLIX
Video
ID : 1
Format : AVC
Format/Info : Advanced Video Codec
Format profile : [email protected]
Format settings, CABAC : Yes
Format settings, ReFrames : 3 frames
Codec ID : avc1
Codec ID/Info : Advanced Video Coding
Duration : 16mn 7s
Bit rate mode : Variable
Bit rate : 5 998 Kbps
Maximum bit rate : 60.0 Mbps
Width : 1 920 pixels
Height : 1 080 pixels
Display aspect ratio : 16:9
Frame rate mode : Variable
Frame rate : 29.970 fps
Minimum frame rate : 29.970 fps
Maximum frame rate : 30.000 fps
Standard : NTSC
Color space : YUV
Chroma subsampling : 4:2:0
Bit depth : 8 bits
Scan type : Progressive
Bits/(Pixel*Frame) : 0.097
Stream size : 692 MiB (98%)
Color primaries : BT.709
Transfer characteristics : BT.709
Matrix coefficients : BT.709
Audio
ID : 2
Format : AAC
Format/Info : Advanced Audio Codec
Format profile : LC
Codec ID : 40
Duration : 16mn 7s
Bit rate mode : Constant
Bit rate : 128 Kbps
Channel(s) : 2 channels
Channel positions : Front: L R
Sampling rate : 48.0 KHz
Compression mode : Lossy
Stream size : 14.8 MiB (2%)

NEW adulttorrent.org - Exclusive video only

Related Torrents
Torrent Name   AGE FILES SIZE

 Date: 10/20/19 16:12   in : Hardcore 

101 days 3 1.5 GB

 Date: 10/20/19 15:37   in : Hardcore 

101 days 1 409.1 MB

 Date: 10/19/19 21:09   in : Hardcore 

101 days 1 371.3 MB

 Date: 10/19/19 20:56   in : Hardcore 

102 days 1 193 MB

 Date: 10/19/19 20:49   in : Hardcore 

102 days 1 353.7 MB

 Date: 10/19/19 20:32   in : Hardcore 

102 days 1 280.8 MB

 Date: 10/19/19 20:15   in : Hardcore 

102 days 1 437.2 MB

 Date: 10/19/19 19:49   in : Hardcore 

102 days 1 364.5 MB

 Date: 10/19/19 19:26   in : Hardcore 

102 days 1 419.8 MB

 Date: 10/19/19 19:08   in : Hardcore 

102 days 1 333.8 MB

 Date: 10/19/19 17:55   in : Hardcore 

102 days 1 195.2 MB

 Date: 10/19/19 17:20   in : Hardcore 

102 days 1 380.1 MB


Copyright © OnceSearch.com 2015-2019. OnceSearch.com provides only meta files (small .torrent files) on its web site, and hosts no actual file for download!!!