Direct Download DP Masters 3 - Jules Jordan 2016 WEB-DL SPLIT SCENES MP4-RARBG torrent

download torrent
Size: 2.3 GB
Downloaded: 119
Hits: 305
DP Masters 3
Jules Jordan (2016)

Cast :
Karmen Karma, Kelsi Monroe, Aidra Fox, Keisha Grey
Synopsis :
Karmen Karma takes on 3 cocks at once, including an ASS-mazing DOUBLE ANAL!
Kelsi Monroe is a flexible blonde with a luscious booty and all holes are open for business!
Beautiful brunette Aidra Fox has fun with James and Steve and she\'s craving a rough double dicking!
Keisha Grey offers her perfect tits and holes to Chris Strokes and Jules Jordan and gets a HEAPING payoff!
Video
ID                          : 1
Format                      : AVC
Format/Info                 : Advanced Video Codec
Format profile              : [email protected]
Format settings, CABAC      : Yes
Format settings, ReFrames   : 3 frames
Codec ID                    : avc1
Codec ID/Info               : Advanced Video Coding
Duration                    : 38mn 25s
Bit rate mode               : Variable
Bit rate                    : 2 000 Kbps
Width                       : 854 pixels
Height                      : 480 pixels
Display aspect ratio        : 16:9
Frame rate mode             : Variable
Frame rate                  : 29.970 (30000/1001) fps
Minimum frame rate          : 14.986 fps
Maximum frame rate          : 29.971 fps
Standard                    : NTSC
Color space                 : YUV
Chroma subsampling          : 4:2:0
Bit depth                   : 8 bits
Scan type                   : Progressive
Bits/(Pixel*Frame)          : 0.163
Stream size                 : 547 MiB (86%)
Color range                 : Limited
Color primaries             : BT.601 NTSC
Transfer characteristics    : BT.601
Matrix coefficients         : BT.601
Audio
ID                          : 2
Format                      : AAC
Format/Info                 : Advanced Audio Codec
Format profile              : LC
Codec ID                    : 40
Duration                    : 38mn 25s
Bit rate mode               : Constant
Bit rate                    : 317 Kbps
Channel(s)                  : 2 channels
Channel positions           : Front: L R
Sampling rate               : 48.0 KHz
Frame rate                  : 46.875 fps (1024 spf)
Compression mode            : Lossy
Stream size                 : 87.2 MiB (14%)
Language                    : unk
Default                     : Yes
Alternate group             : 1


NEW adulttorrent.org - Exclusive video only

Related Torrents
Torrent Name   AGE FILES SIZE

 Date: 06/01/18 00:15   in : XXX 

472 days 1

 Date: 06/01/18 00:12   in : XXX 

472 days 1

 Date: 06/01/18 00:09   in : XXX 

472 days 1

 Date: 06/01/18 00:07   in : XXX 

472 days 1

 Date: 06/01/18 00:04   in : XXX 

472 days 1

 Date: 06/01/18 00:03   in : XXX 

472 days 1

 Date: 06/01/18 00:02   in : XXX 

472 days 1

 Date: 06/01/18 00:02   in : XXX 

472 days 1

 Date: 05/31/18 23:59   in : XXX 

472 days 1

 Date: 05/31/18 23:51   in : XXX 

472 days 1

 Date: 05/31/18 23:51   in : XXX 

472 days 1

 Date: 05/31/18 23:50   in : XXX 

472 days 1