Direct Download DorcelClub - Winnie - Blond Milf with big boobs fucked in the ass mp4 torrent

download torrent
Size: 376.3 MB
Downloaded: 105
Hits: 286


Format                                   : MPEG-4
Format profile                           : Base Media
Codec ID                                 : isom
File size                                : 376 MiB
Duration                                 : 16mn 53s
Overall bit rate mode                    : Variable
Overall bit rate                         : 3 115 Kbps
Writing application                      : Lavf55.3.100
Video
ID                                       : 1
Format                                   : AVC
Format/Info                              : Advanced Video Codec
Format profile                           : [email protected]
Format settings, CABAC                   : Yes
Format settings, ReFrames                : 4 frames
Codec ID                                 : avc1
Codec ID/Info                            : Advanced Video Coding
Duration                                 : 16mn 53s
Bit rate mode                            : Variable
Bit rate                                 : 2 997 Kbps
Maximum bit rate                         : 3 500 Kbps
Width                                    : 1 920 pixels
Height                                   : 1 080 pixels
Display aspect ratio                     : 16:9
Frame rate mode                          : Constant
Frame rate                               : 25.000 fps
Color space                              : YUV
Chroma subsampling                       : 4:2:0
Bit depth                                : 8 bits
Scan type                                : Progressive
Bits/(Pixel*Frame)                       : 0.058
Stream size                              : 362 MiB (96%)
Language                                 : English
Audio
ID                                       : 2
Format                                   : AAC
Format/Info                              : Advanced Audio Codec
Format profile                           : LC
Codec ID                                 : 40
Duration                                 : 16mn 53s
Bit rate mode                            : Constant
Bit rate                                 : 112 Kbps
Channel(s)                               : 2 channels
Channel positions                        : Front: L R
Sampling rate                            : 48.0 KHz
Compression mode                         : Lossy
Stream size                              : 13.5 MiB (4%)
Language                                 : English


NEW adulttorrent.org - Exclusive video only

Related Torrents
Torrent Name   AGE FILES SIZE

 Date: 06/01/18 00:15   in : XXX 

535 days 1

 Date: 06/01/18 00:12   in : XXX 

535 days 1

 Date: 06/01/18 00:09   in : XXX 

535 days 1

 Date: 06/01/18 00:07   in : XXX 

535 days 1

 Date: 06/01/18 00:04   in : XXX 

535 days 1

 Date: 06/01/18 00:03   in : XXX 

535 days 1

 Date: 06/01/18 00:02   in : XXX 

535 days 1

 Date: 06/01/18 00:02   in : XXX 

535 days 1

 Date: 05/31/18 23:59   in : XXX 

535 days 1

 Date: 05/31/18 23:51   in : XXX 

535 days 1

 Date: 05/31/18 23:51   in : XXX 

535 days 1

 Date: 05/31/18 23:50   in : XXX 

535 days 1