Direct Download CzechAmateurs.15.09.01.Amateurs.104.XXX.1080p.MP4-KTR torrent

download torrent
Size: 1.6 GB
Downloaded: 30
Hits: 297

CzechAmateurs.15.09.01.Amateurs.104.XXX.1080p.MP4-KTR
Genre.......: Adult
Files.......: 35
Video.......: MP4
Date........: 2015-09-03
URL.........: http://www.czechamateurs.com/

Video
ID                                       : 1
Format                                   : AVC
Format/Info                              : Advanced Video Codec
Format profile                           : [email protected]
Format settings, CABAC                   : Yes
Format settings, ReFrames                : 5 frames
Codec ID                                 : avc1
Codec ID/Info                            : Advanced Video Coding
Duration                                 : 55mn 37s
Bit rate                                 : 4 000 Kbps
Width                                    : 1 920 pixels
Height                                   : 1 080 pixels
Display aspect ratio                     : 16:9
Frame rate mode                          : Constant
Frame rate                               : 25.000 fps
Color space                              : YUV
Chroma subsampling                       : 4:2:0
Bit depth                                : 8 bits
Scan type                                : Progressive
Bits/(Pixel*Frame)                       : 0.077
Stream size                              : 1.55 GiB (97%)
Writing library                          : x264 core 122
Encoding settings                        : cabac=1 / ref=5 / deblock=1:0:0 / analyse=0x3:0x113 / me=umh / subme=8 / psy=1 / psy_rd=1.00:0.00 / mixed_ref=1 / me_range=16 / chroma_me=1 / trellis=1 / 8x8dct=1 / cqm=0 / deadzone=21,11 / fast_pskip=1 / chroma_qp_offset=-2 / threads=6 / sliced_threads=0 / nr=0 / decimate=1 / interlaced=0 / bluray_compat=0 / constrained_intra=0 / bframes=3 / b_pyramid=2 / b_adapt=2 / b_bias=0 / direct=3 / weightb=1 / open_gop=0 / weightp=2 / keyint=250 / keyint_min=25 / scenecut=40 / intra_refresh=0 / rc_lookahead=50 / rc=abr / mbtree=1 / bitrate=4000 / ratetol=1.0 / qcomp=0.60 / qpmin=0 / qpmax=69 / qpstep=4 / ip_ratio=1.40 / aq=1:1.00
Encoded date                             : UTC 1904-01-01 00:00:00
Tagged date                              : UTC 1904-01-01 00:00:00
Audio
ID                                       : 2
Format                                   : AAC
Format/Info                              : Advanced Audio Codec
Format profile                           : LC
Codec ID                                 : 40
Duration                                 : 55mn 37s
Bit rate mode                            : Constant
Bit rate                                 : 128 Kbps
Channel(s)                               : 2 channels
Channel positions                        : Front: L R
Sampling rate                            : 48.0 KHz
Compression mode                         : Lossy
Stream size                              : 50.9 MiB (3%)
Encoded date                             : UTC 1904-01-01 00:00:00
Tagged date                              : UTC 1904-01-01 00:00:00


Related Torrents
Torrent Name   AGE FILES SIZE

 Date: 04/29/16 00:26   in : Big Butts 

393 days 1

 Date: 04/28/16 03:03   in : Big Butts 

394 days 1

 Date: 04/28/16 02:28   in : Big Butts 

394 days 1 546.6 MB

 Date: 04/28/16 01:23   in : Big Butts 

394 days 1

 Date: 04/28/16 01:20   in : Big Butts 

394 days 1

 Date: 04/28/16 01:17   in : Big Butts 

394 days 1 264.2 MB

 Date: 04/27/16 23:50   in : Big Butts 

394 days 1

 Date: 04/27/16 20:56   in : Big Butts 

394 days 3 1.6 GB

 Date: 04/27/16 20:24   in : Big Butts 

394 days 3 820.9 MB

 Date: 04/27/16 20:21   in : Big Butts 

394 days 1

 Date: 04/27/16 19:55   in : Big Butts 

394 days 3 821.7 MB

 Date: 04/27/16 19:08   in : Big Butts 

394 days 1