Direct Download Dylan Phoenix - Loves A Fucking (2015) FullHD 1080p torrent

download torrent
Size: 2 GB
Downloaded: 135
Hits: 331

Defloration.16.04.07.Sima.Redova.Solo.2.XXX.1080p.MP4-KTR
Genre.......: Adult
Files.......: 43
Video.......: MP4
Date........: 2016-04-08
URL.........: http://www.defloration.com/

Video
ID                                       : 1
Format                                   : AVC
Format/Info                              : Advanced Video Codec
Format profile                           : [email protected]
Format settings, CABAC                   : Yes
Format settings, ReFrames                : 4 frames
Codec ID                                 : avc1
Codec ID/Info                            : Advanced Video Coding
Duration                                 : 28mn 5s
Source duration                          : 28mn 5s
Bit rate                                 : 10 000 Kbps
Width                                    : 1 920 pixels
Height                                   : 1 080 pixels
Display aspect ratio                     : 16:9
Frame rate mode                          : Constant
Frame rate                               : 29.970 (30000/1001) fps
Color space                              : YUV
Chroma subsampling                       : 4:2:0
Bit depth                                : 8 bits
Scan type                                : Progressive
Bits/(Pixel*Frame)                       : 0.161
Stream size                              : 1.96 GiB (98%)
Source stream size                       : 1.96 GiB (98%)
Writing library                          : x264 core 142 r2479 dd79a61
Encoding settings                        : cabac=1 / ref=4 / deblock=1:0:0 / analyse=0x3:0x113 / me=umh / subme=8 / psy=1 / psy_rd=1.00:0.00 / mixed_ref=1 / me_range=16 / chroma_me=1 / trellis=1 / 8x8dct=1 / cqm=0 / deadzone=21,11 / fast_pskip=1 / chroma_qp_offset=-2 / threads=12 / lookahead_threads=2 / sliced_threads=0 / nr=0 / decimate=1 / interlaced=0 / bluray_compat=0 / constrained_intra=0 / bframes=3 / b_pyramid=2 / b_adapt=2 / b_bias=0 / direct=3 / weightb=1 / open_gop=0 / weightp=2 / keyint=300 / keyint_min=30 / scenecut=40 / intra_refresh=0 / rc_lookahead=50 / rc=2pass / mbtree=1 / bitrate=10000 / ratetol=1.0 / qcomp=0.60 / qpmin=0 / qpmax=69 / qpstep=4 / cplxblur=20.0 / qblur=0.5 / vbv_maxrate=62500 / vbv_bufsize=78125 / nal_hrd=none / filler=0 / ip_ratio=1.40 / aq=1:1.00
Encoded date                             : UTC 1904-01-01 00:00:00
Tagged date                              : UTC 1904-01-01 00:00:00
Color range                              : Limited
Color primaries                          : BT.709
Transfer characteristics                 : BT.709
Matrix coefficients                      : BT.709
Audio
ID                                       : 2
Format                                   : AAC
Format/Info                              : Advanced Audio Codec
Format profile                           : LC
Codec ID                                 : 40
Duration                                 : 28mn 5s
Bit rate mode                            : Variable
Bit rate                                 : 162 Kbps
Maximum bit rate                         : 200 Kbps
Channel(s)                               : 2 channels
Channel positions                        : Front: L R
Sampling rate                            : 48.0 KHz
Frame rate                               : 46.875 fps (1024 spf)
Compression mode                         : Lossy
Stream size                              : 32.6 MiB (2%)
Language                                 : English
Default                                  : Yes
Alternate group                          : 1
Encoded date                             : UTC 1904-01-01 00:00:00
Tagged date                              : UTC 1904-01-01 00:00:00


NEW adulttorrent.org - Exclusive video only

Related Torrents
Torrent Name   AGE FILES SIZE

 Date: 06/01/18 00:15   in : XXX 

540 days 1

 Date: 06/01/18 00:12   in : XXX 

540 days 1

 Date: 06/01/18 00:09   in : XXX 

540 days 1

 Date: 06/01/18 00:07   in : XXX 

540 days 1

 Date: 06/01/18 00:04   in : XXX 

540 days 1

 Date: 06/01/18 00:03   in : XXX 

540 days 1

 Date: 06/01/18 00:02   in : XXX 

540 days 1

 Date: 06/01/18 00:02   in : XXX 

540 days 1

 Date: 05/31/18 23:59   in : XXX 

540 days 1

 Date: 05/31/18 23:51   in : XXX 

540 days 1

 Date: 05/31/18 23:51   in : XXX 

540 days 1

 Date: 05/31/18 23:50   in : XXX 

540 days 1