Direct Download DDFBusty - Sensual Jane 720p mp4 19 May 2016 torrent

download torrent
Size: 1 GB
Downloaded: 135
Hits: 221

Video
ID                          : 1
Format                      : AVC
Format/Info                 : Advanced Video Codec
Format profile              : [email protected]
Format settings, CABAC      : Yes
Format settings, ReFrames   : 3 frames
Codec ID                    : avc1
Codec ID/Info               : Advanced Video Coding
Duration                    : 21mn 58s
Bit rate                    : 6 499 Kbps
Width                       : 1 280 pixels
Height                      : 720 pixels
Display aspect ratio        : 16:9
Frame rate mode             : Variable
Frame rate                  : 29.970 (30000/1001) fps
Minimum frame rate          : 29.970 fps
Maximum frame rate          : 30.000 fps
Standard                    : NTSC
Color space                 : YUV
Chroma subsampling          : 4:2:0
Bit depth                   : 8 bits
Scan type                   : Progressive
Bits/(Pixel*Frame)          : 0.235
Stream size                 : 1 022 MiB (97%)
Color range                 : Limited
Color primaries             : BT.709
Transfer characteristics    : BT.709
Matrix coefficients         : BT.709
Audio
ID                          : 2
Format                      : AAC
Format/Info                 : Advanced Audio Codec
Format profile              : LC
Codec ID                    : 40
Duration                    : 21mn 58s
Source duration             : 21mn 59s
Bit rate mode               : Variable
Bit rate                    : 192 Kbps
Maximum bit rate            : 288 Kbps
Channel(s)                  : 2 channels
Channel positions           : Front: L R
Sampling rate               : 48.0 KHz
Frame rate                  : 46.875 fps (1024 spf)
Compression mode            : Lossy
Stream size                 : 29.8 MiB (3%)
Source stream size          : 29.8 MiB (3%)
Language                    : English

NEW adulttorrent.org - Exclusive video only

Related Torrents
Torrent Name   AGE FILES SIZE

 Date: 06/01/18 00:15   in : XXX 

529 days 1

 Date: 06/01/18 00:12   in : XXX 

529 days 1

 Date: 06/01/18 00:09   in : XXX 

529 days 1

 Date: 06/01/18 00:07   in : XXX 

529 days 1

 Date: 06/01/18 00:04   in : XXX 

529 days 1

 Date: 06/01/18 00:03   in : XXX 

529 days 1

 Date: 06/01/18 00:02   in : XXX 

529 days 1

 Date: 06/01/18 00:02   in : XXX 

529 days 1

 Date: 05/31/18 23:59   in : XXX 

529 days 1

 Date: 05/31/18 23:51   in : XXX 

529 days 1

 Date: 05/31/18 23:51   in : XXX 

529 days 1

 Date: 05/31/18 23:50   in : XXX 

529 days 1