Direct Download Passion-HD - Valentina Paradis - Private Striptease torrent

download torrent
Size: 336.4 MB
Downloaded: 19
Hits: 96

Video
ID                                       : 1
Format                                   : AVC
Format/Info                              : Advanced Video Codec
Format profile                           : [email protected]
Format settings, CABAC                   : No
Format settings, ReFrames                : 5 frames
Codec ID                                 : avc1
Codec ID/Info                            : Advanced Video Coding
Duration                                 : 27mn 8s
Bit rate                                 : 1 601 Kbps
Width                                    : 852 pixels
Height                                   : 480 pixels
Display aspect ratio                     : 16:9
Original display aspect ratio            : 16:9
Frame rate mode                          : Constant
Frame rate                               : 23.976 fps
Color space                              : YUV
Chroma subsampling                       : 4:2:0
Bit depth                                : 8 bits
Scan type                                : Progressive
Bits/(Pixel*Frame)                       : 0.163
Stream size                              : 311 MiB (92%)
Writing library                          : x264 core 142 r2431 a5831aa
Encoding settings                        : cabac=0 / ref=5 / deblock=1:0:0 / analyse=0x1:0x111 / me=umh / subme=8 / psy=1 / psy_rd=1.00:0.00 / mixed_ref=1 / me_range=16 / chroma_me=1 / trellis=1 / 8x8dct=0 / cqm=0 / deadzone=21,11 / fast_pskip=1 / chroma_qp_offset=-2 / threads=2 / lookahead_threads=1 / sliced_threads=0 / nr=0 / decimate=1 / interlaced=0 / bluray_compat=0 / constrained_intra=0 / bframes=0 / weightp=0 / keyint=250 / keyint_min=23 / scenecut=40 / intra_refresh=0 / rc_lookahead=50 / rc=crf / mbtree=1 / crf=18.0 / qcomp=0.60 / qpmin=0 / qpmax=69 / qpstep=4 / ip_ratio=1.40 / aq=1:1.00
Language                                 : English
Audio
ID                                       : 2
Format                                   : AAC
Format/Info                              : Advanced Audio Codec
Format profile                           : LC
Codec ID                                 : 40
Duration                                 : 27mn 8s
Duration_LastFrame                       : -15ms
Bit rate mode                            : Variable
Bit rate                                 : 128 Kbps
Channel(s)                               : 2 channels
Channel positions                        : Front: L R
Sampling rate                            : 44.1 KHz
Compression mode                         : Lossy
Stream size                              : 24.7 MiB (7%)
Language                                 : English
Related Torrents
Torrent Name   AGE FILES SIZE

 Date: 08/07/18 17:58   in : Handjob 

11 days 1 805.2 MB

 Date: 08/05/18 16:00   in : Handjob 

13 days 1 1.7 GB

 Date: 07/28/18 16:01   in : Handjob 

21 days 1 232.8 MB

 Date: 07/21/18 04:50   in : Handjob 

29 days 1 1.4 GB

 Date: 07/16/18 21:45   in : Handjob 

33 days 1 1.4 GB

 Date: 07/06/18 11:58   in : Handjob 

43 days 1 619.9 MB

 Date: 06/29/18 19:40   in : Handjob 

50 days 1 435.5 MB

 Date: 06/29/18 14:38   in : Handjob 

50 days 1 2.2 GB

 Date: 06/25/18 18:33   in : Handjob 

54 days 1 1.2 GB

 Date: 06/25/18 13:29   in : Handjob 

54 days 1 2.3 GB

 Date: 05/14/18 14:31   in : Handjob 

96 days 1 258.3 MB

 Date: 05/06/18 06:22   in : Handjob 

105 days 1 386.5 MB