Direct Download CZasting.15.07.04.Silvie.Hardcore.XXX.1080p.MP4-KTR torrent

download torrent
Size: 1.7 GB
Downloaded: 204
Hits: 550

CZasting.15.07.04.Silvie.Hardcore.XXX.1080p.MP4-KTR
Genre.......: Adult
Files.......: 38
Video.......: MP4
Date........: 2015-07-07
URL.........: http://czasting.com/

Video
ID                                       : 1
Format                                   : AVC
Format/Info                              : Advanced Video Codec
Format profile                           : [email protected]
Format settings, CABAC                   : Yes
Format settings, ReFrames                : 4 frames
Codec ID                                 : avc1
Codec ID/Info                            : Advanced Video Coding
Duration                                 : 30mn 19s
Bit rate                                 : 8 000 Kbps
Width                                    : 1 920 pixels
Height                                   : 1 080 pixels
Display aspect ratio                     : 16:9
Frame rate mode                          : Constant
Frame rate                               : 50.000 fps
Color space                              : YUV
Chroma subsampling                       : 4:2:0
Bit depth                                : 8 bits
Scan type                                : Progressive
Bits/(Pixel*Frame)                       : 0.077
Stream size                              : 1.69 GiB (98%)
Writing library                          : x264 core 142 r2479 dd79a61
Encoding settings                        : cabac=1 / ref=2 / deblock=1:0:0 / analyse=0x3:0x113 / me=hex / subme=6 / psy=1 / psy_rd=1.00:0.00 / mixed_ref=1 / me_range=16 / chroma_me=1 / trellis=1 / 8x8dct=1 / cqm=0 / deadzone=21,11 / fast_pskip=1 / chroma_qp_offset=-2 / threads=6 / lookahead_threads=1 / sliced_threads=0 / nr=0 / decimate=1 / interlaced=0 / bluray_compat=0 / constrained_intra=0 / bframes=3 / b_pyramid=2 / b_adapt=1 / b_bias=0 / direct=1 / weightb=1 / open_gop=0 / weightp=1 / keyint=500 / keyint_min=50 / scenecut=40 / intra_refresh=0 / rc_lookahead=30 / rc=2pass / mbtree=1 / bitrate=8000 / ratetol=1.0 / qcomp=0.60 / qpmin=0 / qpmax=69 / qpstep=4 / cplxblur=20.0 / qblur=0.5 / vbv_maxrate=62500 / vbv_bufsize=78125 / nal_hrd=none / filler=0 / ip_ratio=1.40 / aq=1:1.00
Encoded date                             : UTC 1904-01-01 00:00:00
Tagged date                              : UTC 1904-01-01 00:00:00
Color range                              : Limited
Color primaries                          : BT.709
Transfer characteristics                 : BT.709
Matrix coefficients                      : BT.709
Audio
ID                                       : 2
Format                                   : AAC
Format/Info                              : Advanced Audio Codec
Format profile                           : LC
Codec ID                                 : 40
Duration                                 : 30mn 19s
Bit rate mode                            : Constant
Bit rate                                 : 160 Kbps
Channel(s)                               : 2 channels
Channel positions                        : Front: L R
Sampling rate                            : 48.0 KHz
Compression mode                         : Lossy
Stream size                              : 34.8 MiB (2%)
Language                                 : English
Encoded date                             : UTC 1904-01-01 00:00:00
Tagged date                              : UTC 1904-01-01 00:00:00


Related Torrents
Torrent Name   AGE FILES SIZE

 Date: 05/26/17 11:43   in : XXX 

2 min 8 2.4 GB

 Date: 05/26/17 11:32   in : XXX 

14 min 5 1.8 GB

 Date: 05/26/17 11:26   in : XXX 

19 min 1 1.1 GB

 Date: 05/26/17 11:23   in : XXX 

22 min 1 2.9 GB

 Date: 05/26/17 10:58   in : XXX 

47 min 1

 Date: 05/26/17 10:56   in : XXX 

49 min 1 1.1 GB

 Date: 05/26/17 10:52   in : XXX 

53 min 1 2.5 GB

 Date: 05/26/17 10:46   in : XXX 

59 min 1

 Date: 05/26/17 10:30   in : XXX 

1 hour 4 2.2 GB

 Date: 05/26/17 10:21   in : XXX 

1 hour 1

 Date: 05/26/17 10:20   in : XXX 

1 hour 1

 Date: 05/26/17 10:10   in : XXX 

1 hour 5 1.2 GB