Direct Download Creampie-Angels - Abia Logan 540p mp4 07 April 2016 torrent

download torrent
Size: 704 MB
Downloaded: 87
Hits: 137

Video
ID                          : 1
Format                      : AVC
Format/Info                 : Advanced Video Codec
Format profile              : [email protected]
Format settings, CABAC      : Yes
Format settings, ReFrames   : 3 frames
Codec ID                    : avc1
Codec ID/Info               : Advanced Video Coding
Duration                    : 31mn 19s
Bit rate                    : 3 000 Kbps
Width                       : 960 pixels
Height                      : 540 pixels
Display aspect ratio        : 16:9
Frame rate mode             : Constant
Frame rate                  : 25.000 fps
Color space                 : YUV
Chroma subsampling          : 4:2:0
Bit depth                   : 8 bits
Scan type                   : Progressive
Bits/(Pixel*Frame)          : 0.231
Stream size                 : 669 MiB (95%)
Writing library             : x264 core 1191.0
Encoding settings           : cabac=1 / ref=3 / deblock=1:0:0 / analyse=0x3:0x113 / me=hex / subme=7 / psy=1 / psy_rd=1.00:0.00 / mixed_ref=1 / me_range=16 / chroma_me=1 / trellis=1 / 8x8dct=1 / cqm=0 / deadzone=21,11 / fast_pskip=1 / chroma_qp_offset=-2 / threads=36 / sliced_threads=0 / nr=0 / decimate=1 / interlaced=0 / bluray_compat=0 / constrained_intra=0 / bframes=0 / weightp=2 / keyint=100 / keyint_min=10 / scenecut=40 / intra_refresh=0 / rc_lookahead=40 / rc=abr / mbtree=1 / bitrate=3000 / ratetol=1.0 / qcomp=0.60 / qpmin=0 / qpmax=69 / qpstep=4 / ip_ratio=1.40 / aq=1:1.00
Audio
ID                          : 2
Format                      : AAC
Format/Info                 : Advanced Audio Codec
Format profile              : LC
Codec ID                    : 40
Duration                    : 31mn 19s
Bit rate mode               : Variable
Bit rate                    : 152 Kbps
Channel(s)                  : 2 channels
Channel positions           : Front: L R
Sampling rate               : 44.1 KHz
Frame rate                  : 43.066 fps (1024 spf)
Compression mode            : Lossy
Stream size                 : 34.1 MiB (5%)

NEW adulttorrent.org - Exclusive video only

Related Torrents
Torrent Name   AGE FILES SIZE

 Date: 06/01/18 00:15   in : XXX 

536 days 1

 Date: 06/01/18 00:12   in : XXX 

536 days 1

 Date: 06/01/18 00:09   in : XXX 

536 days 1

 Date: 06/01/18 00:07   in : XXX 

536 days 1

 Date: 06/01/18 00:04   in : XXX 

536 days 1

 Date: 06/01/18 00:03   in : XXX 

536 days 1

 Date: 06/01/18 00:02   in : XXX 

536 days 1

 Date: 06/01/18 00:02   in : XXX 

536 days 1

 Date: 05/31/18 23:59   in : XXX 

536 days 1

 Date: 05/31/18 23:51   in : XXX 

536 days 1

 Date: 05/31/18 23:51   in : XXX 

536 days 1

 Date: 05/31/18 23:50   in : XXX 

536 days 1