Direct Download CosplayBabes.16.04.08.Harmony.Reigns.Snow.White.And.The.BBC.XXX.1080p.MP4.KTR torrent

download torrent
Size: 1 GB
Downloaded: 58
Hits: 123


Video
ID                                       : 1
Format                                   : AVC
Format/Info                              : Advanced Video Codec
Format profile                           : [email protected]
Format settings, CABAC                   : No
Format settings, ReFrames                : 2 frames
Codec ID                                 : avc1
Codec ID/Info                            : Advanced Video Coding
Duration                                 : 23mn 41s
Bit rate mode                            : Constant
Bit rate                                 : 6 000 Kbps
Width                                    : 1 920 pixels
Height                                   : 1 080 pixels
Display aspect ratio                     : 16:9
Frame rate mode                          : Constant
Frame rate                               : 25.000 fps
Standard                                 : PAL
Color space                              : YUV
Chroma subsampling                       : 4:2:0
Bit depth                                : 8 bits
Scan type                                : Progressive
Bits/(Pixel*Frame)                       : 0.116
Stream size                              : 1 014 MiB (97%)
Language                                 : English
Audio
ID                                       : 2
Format                                   : AAC
Format/Info                              : Advanced Audio Codec
Format profile                           : LC
Codec ID                                 : 40
Duration                                 : 23mn 41s
Bit rate mode                            : Variable
Bit rate                                 : 192 Kbps
Maximum bit rate                         : 286 Kbps
Channel(s)                               : 2 channels
Channel positions                        : Front: L R
Sampling rate                            : 48.0 KHz
Compression mode                         : Lossy
Stream size                              : 32.1 MiB (3%)
Language                                 : English


NEW adulttorrent.org - Exclusive video only

Related Torrents
Torrent Name   AGE FILES SIZE

 Date: 06/01/18 00:15   in : XXX 

509 days 1

 Date: 06/01/18 00:12   in : XXX 

509 days 1

 Date: 06/01/18 00:09   in : XXX 

509 days 1

 Date: 06/01/18 00:07   in : XXX 

509 days 1

 Date: 06/01/18 00:04   in : XXX 

509 days 1

 Date: 06/01/18 00:03   in : XXX 

509 days 1

 Date: 06/01/18 00:02   in : XXX 

509 days 1

 Date: 06/01/18 00:02   in : XXX 

509 days 1

 Date: 05/31/18 23:59   in : XXX 

509 days 1

 Date: 05/31/18 23:51   in : XXX 

509 days 1

 Date: 05/31/18 23:51   in : XXX 

509 days 1

 Date: 05/31/18 23:50   in : XXX 

509 days 1