Direct Download Cosmid.16.04.03.Brooke.Donato.Brooke.Ds.A.Ref.XXX.720p.MP4-YAPG torrent

download torrent
Size: 413.5 MB
Downloaded: 122
Hits: 261

. .. YES !!! ANOTHER P0RN GROUP - PROUDLY PRESENTS .. .
Release Name ...... :  Cosmid.16.04.03.Brooke.Donato.Brooke.Ds.A.Ref.XXX.720p.MP4-YAPG
URL ............... :  Cosmid.net
Media ............. :  MP4
Resolution ........ :  1280x720 - 720p
Release Date ...... :  16.04.03
Genre ............. :
Length ............ :   7min. 28sec.
Size .............. :  29 x 15MB 413.52 MB
.  .. R E L E A S E . I N F O R M A T I O N ..  .
Release notes :
New Porn for you.
Enjoy it
logo and info layout: YAPG     /     info last updated on : 10.10.17

Video
ID                                       : 1
Format                                   : AVC
Format/Info                              : Advanced Video Codec
Format profile                           : [email protected]
Format settings, CABAC                   : No
Format settings, ReFrames                : 2 frames
Format settings, GOP                     : M=2, N=24
Codec ID                                 : avc1
Codec ID/Info                            : Advanced Video Coding
Duration                                 : 7mn 27s
Bit rate                                 : 7 630 Kbps
Width                                    : 1 280 pixels
Clean aperture width                     : 1 248 pixels
Height                                   : 720 pixels
Clean aperture height                    : 702 pixels
Display aspect ratio                     : 16:9
Frame rate mode                          : Constant
Frame rate                               : 29.970 (29970/1000) fps
Color space                              : YUV
Chroma subsampling                       : 4:2:0
Bit depth                                : 8 bits
Scan type                                : Progressive
Bits/(Pixel*Frame)                       : 0.276
Stream size                              : 407 MiB (99%)
Language                                 : English
Encoded date                             : UTC 2016-04-02 21:33:33
Tagged date                              : UTC 2016-04-02 21:34:01
Color range                              : Limited
Color primaries                          : BT.709
Transfer characteristics                 : BT.709
Matrix coefficients                      : BT.709
Audio
ID                                       : 2
Format                                   : AAC
Format/Info                              : Advanced Audio Codec
Format profile                           : LC
Codec ID                                 : 40
Duration                                 : 7mn 27s
Source duration                          : 7mn 28s
Bit rate mode                            : Constant
Bit rate                                 : 108 Kbps
Nominal bit rate                         : 128 Kbps
Channel(s)                               : 2 channels
Channel positions                        : Front: L R
Sampling rate                            : 48.0 KHz
Frame rate                               : 46.875 fps (1024 spf)
Compression mode                         : Lossy
Stream size                              : 5.78 MiB (1%)
Source stream size                       : 5.78 MiB (1%)
Language                                 : English
Encoded date                             : UTC 2016-04-02 21:33:33
Tagged date                              : UTC 2016-04-02 21:34:01
Other
ID                                       : 3
Type                                     : Time code
Format                                   : QuickTime TC
Duration                                 : 7mn 27s
Time code of first frame                 : 00:00:00:00
Time code, striped                       : Yes
Language                                 : English
Encoded date                             : UTC 2016-04-02 21:34:01
Tagged date                              : UTC 2016-04-02 21:34:01


NEW adulttorrent.org - Exclusive video only

Related Torrents
Torrent Name   AGE FILES SIZE

 Date: 06/01/18 00:15   in : XXX 

529 days 1

 Date: 06/01/18 00:12   in : XXX 

529 days 1

 Date: 06/01/18 00:09   in : XXX 

529 days 1

 Date: 06/01/18 00:07   in : XXX 

529 days 1

 Date: 06/01/18 00:04   in : XXX 

529 days 1

 Date: 06/01/18 00:03   in : XXX 

529 days 1

 Date: 06/01/18 00:02   in : XXX 

529 days 1

 Date: 06/01/18 00:02   in : XXX 

529 days 1

 Date: 05/31/18 23:59   in : XXX 

529 days 1

 Date: 05/31/18 23:51   in : XXX 

529 days 1

 Date: 05/31/18 23:51   in : XXX 

529 days 1

 Date: 05/31/18 23:50   in : XXX 

529 days 1