Direct Download Cosmid.15.07.11.Chelsea.Bell.Chelseas.Shave.XXX.720p.MP4-YAPG torrent

download torrent
Size: 659.2 MB
Downloaded: 224
Hits: 481

. .. YES !!! ANOTHER P0RN GROUP - PROUDLY PRESENTS .. .
Release Name ...... :  Cosmid.15.07.11.Chelsea.Bell.Chelseas.Shave.XXX.720p.MP4-YAPG
URL ............... :  Cosmid.net
Media ............. :  MP4
Resolution ........ :  1280x720 - 720p
Release Date ...... :  15.07.11
Genre ............. :
Length ............ :   11min. 5sec.
Size .............. :  47 x 15MB 659.23 MB
.  .. R E L E A S E . I N F O R M A T I O N ..  .
Release notes :
New Porn for you.
Enjoy it
logo and info layout: YAPG     /     info last updated on : 10.10.17

Video
ID                                       : 1
Format                                   : AVC
Format/Info                              : Advanced Video Codec
Format profile                           : [email protected]
Format settings, CABAC                   : No
Format settings, ReFrames                : 2 frames
Format settings, GOP                     : M=2, N=24
Codec ID                                 : avc1
Codec ID/Info                            : Advanced Video Coding
Duration                                 : 11mn 5s
Bit rate                                 : 8 202 Kbps
Width                                    : 1 280 pixels
Clean aperture width                     : 1 248 pixels
Height                                   : 720 pixels
Clean aperture height                    : 702 pixels
Display aspect ratio                     : 16:9
Frame rate mode                          : Constant
Frame rate                               : 29.970 fps
Color space                              : YUV
Chroma subsampling                       : 4:2:0
Bit depth                                : 8 bits
Scan type                                : Progressive
Bits/(Pixel*Frame)                       : 0.297
Stream size                              : 650 MiB (99%)
Language                                 : English
Encoded date                             : UTC 2015-07-10 21:33:26
Tagged date                              : UTC 2015-07-10 21:34:01
Color range                              : Limited
Color primaries                          : BT.709
Transfer characteristics                 : BT.709
Matrix coefficients                      : BT.709
Audio
ID                                       : 2
Format                                   : AAC
Format/Info                              : Advanced Audio Codec
Format profile                           : LC
Codec ID                                 : 40
Duration                                 : 11mn 5s
Source duration                          : 11mn 5s
Bit rate mode                            : Constant
Bit rate                                 : 107 Kbps
Nominal bit rate                         : 128 Kbps
Channel(s)                               : 2 channels
Channel positions                        : Front: L R
Sampling rate                            : 48.0 KHz
Compression mode                         : Lossy
Stream size                              : 8.51 MiB (1%)
Source stream size                       : 8.51 MiB (1%)
Language                                 : English
Encoded date                             : UTC 2015-07-10 21:33:26
Tagged date                              : UTC 2015-07-10 21:34:01
Other
ID                                       : 3
Type                                     : Time code
Format                                   : QuickTime TC
Duration                                 : 11mn 5s
Time code of first frame                 : 01:00:00;00
Time code, striped                       : Yes
Language                                 : English
Encoded date                             : UTC 2015-07-10 21:34:01
Tagged date                              : UTC 2015-07-10 21:34:01


NEW adulttorrent.org - Exclusive video only

Related Torrents
Torrent Name   AGE FILES SIZE

 Date: 03/05/21 06:14   in : XXX 

13 hours 1

 Date: 03/05/21 06:11   in : XXX 

13 hours 1

 Date: 03/05/21 06:08   in : XXX 

13 hours 1

 Date: 03/05/21 06:07   in : XXX 

13 hours 1

 Date: 03/05/21 06:05   in : XXX 

13 hours 1

 Date: 03/05/21 05:58   in : XXX 

14 hours 1

 Date: 03/05/21 05:55   in : XXX 

14 hours 1

 Date: 03/05/21 05:53   in : XXX 

14 hours 1

 Date: 03/05/21 05:50   in : XXX 

14 hours 1

 Date: 03/05/21 05:48   in : XXX 

14 hours 1

 Date: 03/05/21 05:41   in : XXX 

14 hours 1

 Date: 03/05/21 05:36   in : XXX 

14 hours 1


Copyright © OnceSearch.com 2015-2019. OnceSearch.com provides only meta files (small .torrent files) on its web site, and hosts no actual file for download!!!