Direct Download Corrupt Schoolgirls 12 2016 WEB-DL SPLIT SCENES torrent

download torrent
Size: 1.5 GB
Downloaded: 132
Hits: 93

Video
ID                          : 1
Format                      : AVC
Format/Info                 : Advanced Video Codec
Format profile              : [email protected]
Format settings, CABAC      : Yes
Format settings, ReFrames   : 5 frames
Format settings, GOP        : M=4, N=48
Codec ID                    : avc1
Codec ID/Info               : Advanced Video Coding
Duration                    : 29mn 9s
Bit rate mode               : Constant
Bit rate                    : 2 048 Kbps
Width                       : 848 pixels
Height                      : 480 pixels
Display aspect ratio        : 16:9
Frame rate mode             : Variable
Frame rate                  : 23.976 (24000/1001) fps
Minimum frame rate          : 23.976 fps
Maximum frame rate          : 24.000 fps
Standard                    : Component
Color space                 : YUV
Chroma subsampling          : 4:2:0
Bit depth                   : 8 bits
Scan type                   : Progressive
Bits/(Pixel*Frame)          : 0.210
Stream size                 : 427 MiB (91%)
Language                    : English
Color range                 : Limited
Audio
ID                          : 2
Format                      : AAC
Format/Info                 : Advanced Audio Codec
Format profile              : LC
Codec ID                    : 40
Duration                    : 29mn 9s
Bit rate mode               : Variable
Bit rate                    : 192 Kbps
Maximum bit rate            : 287 Kbps
Channel(s)                  : 2 channels
Channel positions           : Front: L R
Sampling rate               : 44.1 KHz
Frame rate                  : 43.066 fps (1024 spf)
Compression mode            : Lossy
Stream size                 : 39.5 MiB (8%)
Language                    : English


NEW adulttorrent.org - Exclusive video only

Related Torrents
Torrent Name   AGE FILES SIZE

 Date: 06/01/18 00:15   in : XXX 

529 days 1

 Date: 06/01/18 00:12   in : XXX 

529 days 1

 Date: 06/01/18 00:09   in : XXX 

529 days 1

 Date: 06/01/18 00:07   in : XXX 

529 days 1

 Date: 06/01/18 00:04   in : XXX 

529 days 1

 Date: 06/01/18 00:03   in : XXX 

529 days 1

 Date: 06/01/18 00:02   in : XXX 

529 days 1

 Date: 06/01/18 00:02   in : XXX 

529 days 1

 Date: 05/31/18 23:59   in : XXX 

529 days 1

 Date: 05/31/18 23:51   in : XXX 

529 days 1

 Date: 05/31/18 23:51   in : XXX 

529 days 1

 Date: 05/31/18 23:50   in : XXX 

529 days 1