Direct Download LegalPorno - Lana Fever - Hardcore Climax Porno SZ212 mp4 torrent

download torrent
Size: 591.7 MB
Downloaded: 120
Hits: 429

Video
ID                                       : 1
Format                                   : AVC
Format/Info                              : Advanced Video Codec
Format profile                           : [email protected]
Format settings, CABAC                   : Yes
Format settings, ReFrames                : 4 frames
Codec ID                                 : avc1
Codec ID/Info                            : Advanced Video Coding
Duration                                 : 31mn 54s
Bit rate                                 : 2 500 Kbps
Width                                    : 848 pixels
Height                                   : 480 pixels
Display aspect ratio                     : 16:9
Frame rate mode                          : Constant
Frame rate                               : 29.970 fps
Color space                              : YUV
Chroma subsampling                       : 4:2:0
Bit depth                                : 8 bits
Scan type                                : Progressive
Bits/(Pixel*Frame)                       : 0.205
Stream size                              : 569 MiB (96%)
Writing library                          : x264 core 120 r2151 a3f4407
Encoding settings                        : cabac=1 / ref=3 / deblock=1:0:0 / analyse=0x3:0x113 / me=hex / subme=7 / psy=1 / psy_rd=1.00:0.00 / mixed_ref=1 / me_range=16 / chroma_me=1 / trellis=1 / 8x8dct=1 / cqm=0 / deadzone=21,11 / fast_pskip=1 / chroma_qp_offset=-2 / threads=1 / sliced_threads=0 / nr=0 / decimate=1 / interlaced=0 / bluray_compat=0 / constrained_intra=0 / bframes=3 / b_pyramid=2 / b_adapt=1 / b_bias=0 / direct=1 / weightb=1 / open_gop=0 / weightp=2 / keyint=250 / keyint_min=25 / scenecut=40 / intra_refresh=0 / rc_lookahead=40 / rc=abr / mbtree=1 / bitrate=2500 / ratetol=1.0 / qcomp=0.60 / qpmin=0 / qpmax=69 / qpstep=4 / ip_ratio=1.40 / aq=1:1.00
Audio
ID                                       : 2
Format                                   : AAC
Format/Info                              : Advanced Audio Codec
Format profile                           : LC
Codec ID                                 : 40
Duration                                 : 31mn 54s
Duration_LastFrame                       : -21ms
Bit rate mode                            : Constant
Bit rate                                 : 96.0 Kbps
Channel(s)                               : 2 channels
Channel positions                        : Front: L R
Sampling rate                            : 44.1 KHz
Compression mode                         : Lossy
Stream size                              : 21.9 MiB (4%)

NEW adulttorrent.org - Exclusive video only

Related Torrents
Torrent Name   AGE FILES SIZE

 Date: 05/10/19 10:58   in : Comics 

192 days 497 235.8 MB

 Date: 02/23/19 12:49   in : Comics 

268 days 316 390.4 MB

 Date: 11/09/18 15:04   in : Comics 

374 days 222 234.4 MB

 Date: 10/14/18 14:52   in : Comics 

400 days 54 11.7 MB

 Date: 10/14/18 14:49   in : Comics 

400 days 64 6.7 MB

 Date: 10/14/18 14:43   in : Comics 

400 days 80 30 MB

 Date: 10/14/18 14:28   in : Comics 

400 days 31 53.8 MB

 Date: 10/14/18 14:19   in : Comics 

400 days 151 68 MB

 Date: 10/14/18 14:14   in : Comics 

400 days 444 145.5 MB

 Date: 10/14/18 14:07   in : Comics 

400 days 94 24.4 MB

 Date: 10/14/18 13:56   in : Comics 

400 days 28 12.7 MB

 Date: 10/14/18 09:28   in : Comics 

400 days 56 33.3 MB