Direct Download ClubSandy - Kassondra Raine - Kassondra's Naughty Massage mp4 torrent

download torrent
Size: 309.8 MB
Downloaded: 124
Hits: 198

Slutty Kassondra Raine is feeling very tight and needs a massage. She calls over her masseuse Alex to help. He works her muscles deeply before Kassondra tells him that its really her pussy that needs a deep cock massage. She grabs his cock and sucks it while he rubs her pussy, getting it all wet and ready to be fucked. Kassondra enjoys every deep thrust of his cock before opening her mouth for a messy facial.

Format                                   : MPEG-4
Format profile                           : Base Media
Codec ID                                 : isom
File size                                : 310 MiB
Duration                                 : 32mn 30s
Overall bit rate                         : 1 332 Kbps
Writing application                      : Lavf56.40.101
Video
ID                                       : 1
Format                                   : AVC
Format/Info                              : Advanced Video Codec
Format profile                           : [email protected]
Format settings, CABAC                   : Yes
Format settings, ReFrames                : 4 frames
Codec ID                                 : avc1
Codec ID/Info                            : Advanced Video Coding
Duration                                 : 32mn 30s
Bit rate                                 : 1 200 Kbps
Width                                    : 720 pixels
Height                                   : 400 pixels
Display aspect ratio                     : 16:9
Frame rate mode                          : Constant
Frame rate                               : 29.970 fps
Color space                              : YUV
Chroma subsampling                       : 4:2:0
Bit depth                                : 8 bits
Scan type                                : Progressive
Bits/(Pixel*Frame)                       : 0.139
Stream size                              : 278 MiB (90%)
Writing library                          : x264 core 148
Encoding settings                        : cabac=1 / ref=3 / deblock=1:0:0 / analyse=0x3:0x113 / me=umh / subme=7 / psy=1 / psy_rd=1.00:0.00 / mixed_ref=1 / me_range=16 / chroma_me=1 / trellis=1 / 8x8dct=1 / cqm=0 / deadzone=21,11 / fast_pskip=1 / chroma_qp_offset=-2 / threads=12 / lookahead_threads=2 / sliced_threads=0 / nr=0 / decimate=1 / interlaced=0 / bluray_compat=0 / constrained_intra=0 / bframes=3 / b_pyramid=2 / b_adapt=1 / b_bias=0 / direct=1 / weightb=1 / open_gop=0 / weightp=2 / keyint=250 / keyint_min=25 / scenecut=40 / intra_refresh=0 / rc_lookahead=40 / rc=abr / mbtree=1 / bitrate=1200 / ratetol=1.0 / qcomp=0.60 / qpmin=0 / qpmax=69 / qpstep=4 / ip_ratio=1.40 / aq=1:1.00
Audio
ID                                       : 2
Format                                   : AAC
Format/Info                              : Advanced Audio Codec
Format profile                           : LC
Codec ID                                 : 40
Duration                                 : 32mn 30s
Duration_LastFrame                       : -18ms
Bit rate mode                            : Constant
Bit rate                                 : 128 Kbps
Channel(s)                               : 2 channels
Channel positions                        : Front: L R
Sampling rate                            : 44.1 KHz
Compression mode                         : Lossy
Stream size                              : 29.8 MiB (10%)
Language                                 : English


NEW adulttorrent.org - Exclusive video only

Related Torrents
Torrent Name   AGE FILES SIZE

 Date: 06/01/18 00:15   in : XXX 

529 days 1

 Date: 06/01/18 00:12   in : XXX 

529 days 1

 Date: 06/01/18 00:09   in : XXX 

529 days 1

 Date: 06/01/18 00:07   in : XXX 

529 days 1

 Date: 06/01/18 00:04   in : XXX 

529 days 1

 Date: 06/01/18 00:03   in : XXX 

529 days 1

 Date: 06/01/18 00:02   in : XXX 

529 days 1

 Date: 06/01/18 00:02   in : XXX 

529 days 1

 Date: 05/31/18 23:59   in : XXX 

529 days 1

 Date: 05/31/18 23:51   in : XXX 

529 days 1

 Date: 05/31/18 23:51   in : XXX 

529 days 1

 Date: 05/31/18 23:50   in : XXX 

529 days 1