Direct Download Clips4Sale - Britney Amber - Britneys slow teasing suck 540p mp4 torrent

download torrent
Size: 421.5 MB
Downloaded: 111
Hits: 221

Video
ID                          : 2
Format                      : AVC
Format/Info                 : Advanced Video Codec
Format profile              : [email protected]
Format settings, CABAC      : Yes
Format settings, ReFrames   : 1 frame
Format settings, GOP        : M=1, N=25
Codec ID                    : avc1
Codec ID/Info               : Advanced Video Coding
Duration                    : 19mn 41s
Bit rate mode               : Constant
Bit rate                    : 2 861 Kbps
Width                       : 960 pixels
Height                      : 540 pixels
Display aspect ratio        : 16:9
Frame rate mode             : Constant
Frame rate                  : 59.940 (60000/1001) fps
Color space                 : YUV
Chroma subsampling          : 4:2:0
Bit depth                   : 8 bits
Scan type                   : Progressive
Bits/(Pixel*Frame)          : 0.092
Stream size                 : 403 MiB (96%)
Audio
ID                          : 1
Format                      : AAC
Format/Info                 : Advanced Audio Codec
Format profile              : LC
Codec ID                    : 40
Duration                    : 19mn 41s
Bit rate mode               : Constant
Bit rate                    : 127 Kbps
Channel(s)                  : 2 channels
Channel positions           : Front: L R
Sampling rate               : 48.0 KHz
Frame rate                  : 46.875 fps (1024 spf)
Compression mode            : Lossy
Stream size                 : 17.9 MiB (4%)
Default                     : Yes
Alternate group             : 1

NEW adulttorrent.org - Exclusive video only

Related Torrents
Torrent Name   AGE FILES SIZE

 Date: 06/01/18 00:15   in : XXX 

536 days 1

 Date: 06/01/18 00:12   in : XXX 

536 days 1

 Date: 06/01/18 00:09   in : XXX 

536 days 1

 Date: 06/01/18 00:07   in : XXX 

536 days 1

 Date: 06/01/18 00:04   in : XXX 

536 days 1

 Date: 06/01/18 00:03   in : XXX 

536 days 1

 Date: 06/01/18 00:02   in : XXX 

536 days 1

 Date: 06/01/18 00:02   in : XXX 

536 days 1

 Date: 05/31/18 23:59   in : XXX 

536 days 1

 Date: 05/31/18 23:51   in : XXX 

536 days 1

 Date: 05/31/18 23:51   in : XXX 

536 days 1

 Date: 05/31/18 23:50   in : XXX 

536 days 1