Direct Download [Chaturbate] Zasxd2 show on 1080p torrent

download torrent
Size: 104 MB
Downloaded: 97
Hits: 136


Video
ID                                       : 1
Format                                   : AVC
Format/Info                              : Advanced Video Codec
Format profile                           : [email protected]
Format settings, CABAC                   : Yes
Format settings, ReFrames                : 5 frames
Codec ID                                 : avc1
Codec ID/Info                            : Advanced Video Coding
Duration                                 : 12mn 42s
Bit rate                                 : 1 000 Kbps
Width                                    : 720 pixels
Height                                   : 400 pixels
Display aspect ratio                     : 16:9
Frame rate mode                          : Constant
Frame rate                               : 29.970 (29970/1000) fps
Color space                              : YUV
Chroma subsampling                       : 4:2:0
Bit depth                                : 8 bits
Scan type                                : Progressive
Bits/(Pixel*Frame)                       : 0.116
Stream size                              : 90.0 MiB (87%)
Title                                    : RARBG.COM - 1000Facials.16.06.06.August.Taylor.XXX.SD.MP4-RARBG
Writing library                          : x264 core 148 r2597M e86f3a1
Encoding settings                        : cabac=1 / ref=5 / deblock=1:0:0 / analyse=0x3:0x113 / me=umh / subme=8 / psy=1 / psy_rd=1.00:0.00 / mixed_ref=1 / me_range=16 / chroma_me=1 / trellis=1 / 8x8dct=1 / cqm=0 / deadzone=21,11 / fast_pskip=1 / chroma_qp_offset=-2 / threads=12 / lookahead_threads=2 / sliced_threads=0 / nr=0 / decimate=1 / interlaced=0 / bluray_compat=0 / constrained_intra=0 / bframes=3 / b_pyramid=2 / b_adapt=2 / b_bias=0 / direct=3 / weightb=1 / open_gop=0 / weightp=2 / keyint=250 / keyint_min=25 / scenecut=40 / intra_refresh=0 / rc_lookahead=50 / rc=abr / mbtree=1 / bitrate=1000 / ratetol=1.0 / qcomp=0.60 / qpmin=0 / qpmax=69 / qpstep=4 / ip_ratio=1.40 / aq=1:1.00
Encoded date                             : UTC 2016-06-08 04:19:15
Tagged date                              : UTC 2016-06-08 04:19:15
Audio
ID                                       : 2
Format                                   : AAC
Format/Info                              : Advanced Audio Codec
Format profile                           : LC
Codec ID                                 : 40
Duration                                 : 12mn 42s
Bit rate mode                            : Constant
Bit rate                                 : 144 Kbps
Channel(s)                               : 2 channels
Channel positions                        : Front: L R
Sampling rate                            : 44.1 KHz
Frame rate                               : 43.066 fps (1024 spf)
Compression mode                         : Lossy
Stream size                              : 13.2 MiB (13%)
Title                                    : RARBG.COM - 1000Facials.16.06.06.August.Taylor.XXX.SD.MP4-RARBG
Language                                 : English
Default                                  : Yes
Alternate group                          : 1
Encoded date                             : UTC 2016-06-08 04:19:15
Tagged date                              : UTC 2016-06-08 04:19:15

NEW adulttorrent.org - Exclusive video only

Related Torrents
Torrent Name   AGE FILES SIZE

 Date: 09/29/19 16:56   in : Blowjob 

43 days 34 54.9 GB

 Date: 09/29/19 06:46   in : Blowjob 

43 days 1 272.8 MB

 Date: 09/29/19 04:59   in : Blowjob 

43 days 1 398.9 MB

 Date: 09/28/19 09:48   in : Blowjob 

44 days 1 236.9 MB

 Date: 09/28/19 09:35   in : Blowjob 

44 days 1 284.4 MB

 Date: 09/28/19 09:29   in : Blowjob 

44 days 1 222.5 MB

 Date: 09/28/19 07:42   in : Blowjob 

44 days 1 530.4 MB

 Date: 09/28/19 07:15   in : Blowjob 

44 days 1 202.7 MB

 Date: 09/26/19 17:12   in : Blowjob 

46 days 1 2.7 GB

 Date: 09/26/19 17:12   in : Blowjob 

46 days 1 3 GB

 Date: 09/26/19 16:59   in : Blowjob 

46 days 1 552.2 MB

 Date: 09/26/19 11:30   in : Blowjob 

46 days 1 245.3 MB