Direct Download Car Trouble - 2016 Wicked Pictures Web-DL Split Scenes mp4 torrent

download torrent
Size: 1.3 GB
Downloaded: 114
Hits: 218
       
Cast:
Belle Claire, Sofi Goldfinger, Arwen Gold, Sara Kay, Francesca Dicaprio
Forget online dating, the best way to meet hot girls in Europe is to fake car trouble! You\'ll be amazed at what these gorgeous girls will do to help!

Format                                   : MPEG-4
Format profile                           : Base Media
Codec ID                                 : isom
File size                                : 303 MiB
Duration                                 : 28mn 57s
Overall bit rate                         : 1 463 Kbps
Writing application                      : Lavf54.63.100
Video
ID                                       : 1
Format                                   : AVC
Format/Info                              : Advanced Video Codec
Format profile                           : [email protected]
Format settings, CABAC                   : Yes
Format settings, ReFrames                : 4 frames
Codec ID                                 : avc1
Codec ID/Info                            : Advanced Video Coding
Duration                                 : 28mn 57s
Bit rate                                 : 1 300 Kbps
Width                                    : 720 pixels
Height                                   : 400 pixels
Display aspect ratio                     : 16:9
Frame rate mode                          : Constant
Frame rate                               : 23.976 fps
Color space                              : YUV
Chroma subsampling                       : 4:2:0
Bit depth                                : 8 bits
Scan type                                : Progressive
Bits/(Pixel*Frame)                       : 0.188
Stream size                              : 268 MiB (88%)
Writing library                          : x264 core 129 r2245 bc13772
Encoding settings                        : cabac=1 / ref=4 / deblock=1:0:0 / analyse=0x3:0x113 / me=umh / subme=8 / psy=1 / psy_rd=1.00:0.00 / mixed_ref=1 / me_range=16 / chroma_me=1 / trellis=1 / 8x8dct=1 / cqm=0 / deadzone=21,11 / fast_pskip=1 / chroma_qp_offset=-2 / threads=9 / lookahead_threads=1 / sliced_threads=0 / nr=0 / decimate=1 / interlaced=0 / bluray_compat=0 / constrained_intra=0 / bframes=3 / b_pyramid=2 / b_adapt=2 / b_bias=0 / direct=3 / weightb=1 / open_gop=0 / weightp=2 / keyint=60 / keyint_min=6 / scenecut=40 / intra_refresh=0 / rc_lookahead=50 / rc=abr / mbtree=1 / bitrate=1300 / ratetol=1.0 / qcomp=0.60 / qpmin=0 / qpmax=69 / qpstep=4 / ip_ratio=1.40 / aq=1:1.00
Tagged date                              : UTC 2016-03-24 21:18:08
Audio
ID                                       : 2
Format                                   : AAC
Format/Info                              : Advanced Audio Codec
Format profile                           : LC
Codec ID                                 : 40
Duration                                 : 28mn 57s
Duration_LastFrame                       : -9ms
Bit rate mode                            : Constant
Bit rate                                 : 96.0 Kbps
Channel(s)                               : 2 channels
Channel positions                        : Front: L R
Sampling rate                            : 48.0 KHz
Compression mode                         : Lossy
Stream size                              : 19.9 MiB (7%)
Tagged date                              : UTC 2016-03-24 21:18:08


NEW adulttorrent.org - Exclusive video only

Related Torrents
Torrent Name   AGE FILES SIZE

 Date: 06/01/18 00:15   in : XXX 

475 days 1

 Date: 06/01/18 00:12   in : XXX 

475 days 1

 Date: 06/01/18 00:09   in : XXX 

475 days 1

 Date: 06/01/18 00:07   in : XXX 

475 days 1

 Date: 06/01/18 00:04   in : XXX 

475 days 1

 Date: 06/01/18 00:03   in : XXX 

475 days 1

 Date: 06/01/18 00:02   in : XXX 

475 days 1

 Date: 06/01/18 00:02   in : XXX 

475 days 1

 Date: 05/31/18 23:59   in : XXX 

475 days 1

 Date: 05/31/18 23:51   in : XXX 

475 days 1

 Date: 05/31/18 23:51   in : XXX 

475 days 1

 Date: 05/31/18 23:50   in : XXX 

475 days 1