NEW BEST ADULT Torrent..Tsss....only for you!

Direct Download Nubiles.15.08.24.Xandra.Sixx.Up.With.Skirts.XXX.1080p.MP4-KTR torrent

download torrent
Size: 1.7 GB
Downloaded: 32
Hits: 141

Nubiles.15.08.24.Xandra.Sixx.Up.With.Skirts.XXX.1080p.MP4-KTR
Genre.......: Adult
Files.......: 36
Video.......: MP4
Date........: 2015-08-24
URL.........: http://www.nubiles.net/

Video
ID                                       : 1
Format                                   : AVC
Format/Info                              : Advanced Video Codec
Format profile                           : [email protected]
Format settings, CABAC                   : Yes
Format settings, ReFrames                : 4 frames
Codec ID                                 : avc1
Codec ID/Info                            : Advanced Video Coding
Duration                                 : 14mn 32s
Bit rate                                 : 16.2 Mbps
Width                                    : 1 920 pixels
Height                                   : 1 080 pixels
Display aspect ratio                     : 16:9
Frame rate mode                          : Constant
Frame rate                               : 59.940 fps
Color space                              : YUV
Chroma subsampling                       : 4:2:0
Bit depth                                : 8 bits
Scan type                                : Progressive
Bits/(Pixel*Frame)                       : 0.131
Stream size                              : 1.65 GiB (99%)
Writing library                          : x264 core 142
Encoding settings                        : cabac=1 / ref=2 / deblock=1:-1:-1 / analyse=0x1:0x111 / me=umh / subme=8 / psy=1 / psy_rd=1.00:0.15 / mixed_ref=1 / me_range=16 / chroma_me=1 / trellis=1 / 8x8dct=0 / cqm=0 / deadzone=21,11 / fast_pskip=1 / chroma_qp_offset=-3 / threads=24 / lookahead_threads=4 / sliced_threads=0 / nr=0 / decimate=1 / interlaced=0 / bluray_compat=0 / constrained_intra=0 / bframes=3 / b_pyramid=2 / b_adapt=2 / b_bias=0 / direct=3 / weightb=1 / open_gop=0 / weightp=0 / keyint=240 / keyint_min=24 / scenecut=40 / intra_refresh=0 / rc_lookahead=50 / rc=crf / mbtree=1 / crf=18.0 / qcomp=0.60 / qpmin=0 / qpmax=69 / qpstep=4 / ip_ratio=1.40 / aq=1:1.00
Language                                 : English
Encoded date                             : UTC 1904-01-01 00:00:00
Tagged date                              : UTC 1904-01-01 00:00:00
Audio
ID                                       : 2
Format                                   : AAC
Format/Info                              : Advanced Audio Codec
Format profile                           : LC
Codec ID                                 : 40
Duration                                 : 14mn 32s
Duration_LastFrame                       : 18ms
Bit rate mode                            : Constant
Bit rate                                 : 151 Kbps
Channel(s)                               : 2 channels
Channel positions                        : Front: L R
Sampling rate                            : 44.1 KHz
Compression mode                         : Lossy
Stream size                              : 15.7 MiB (1%)
Language                                 : English
Encoded date                             : UTC 1904-01-01 00:00:00
Tagged date                              : UTC 1904-01-01 00:00:00

NEW adulttorrent.org - Exclusive video only

Related Torrents
Torrent Name   AGE FILES SIZE

 Date: 05/23/19 09:16   in : BBW 

3 days 1 834 MB

 Date: 05/17/19 07:51   in : BBW 

9 days 1 873.5 MB

 Date: 05/15/19 14:26   in : BBW 

11 days 76 1.6 GB

 Date: 05/03/19 22:46   in : BBW 

23 days 4 490.5 MB

 Date: 04/30/19 03:25   in : BBW 

26 days 1 296.3 MB

 Date: 04/23/19 09:17   in : BBW 

33 days 1 1.9 GB

 Date: 04/18/19 12:58   in : BBW 

38 days 12 1.9 GB

 Date: 04/18/19 10:55   in : BBW 

38 days 1 485.1 MB

 Date: 04/09/19 13:26   in : BBW 

47 days 1 629.3 MB

 Date: 04/09/19 13:21   in : BBW 

47 days 1 1.3 GB

 Date: 04/09/19 12:30   in : BBW 

47 days 1 971.3 MB

 Date: 04/03/19 14:22   in : BBW 

53 days 1 1.3 GB