Direct Download BrutalDildos.16.04.07.July.Sun.And.Dominica.Phoenix.XXX.1080p.WMV-KTR torrent

download torrent
Size: 1.4 GB
Downloaded: 87
Hits: 116

BrutalDildos.16.04.07.July.Sun.And.Dominica.Phoenix.XXX.1080p.
WMV-KTR
Genre.......: Adult
Files.......: 31
Video.......: WMV
Date........: 2016-04-08
URL.........: http://www.brutaldildos.com/

Video
ID                                       : 1
Format                                   : WMV1
Codec ID                                 : WMV1
Codec ID/Info                            : Windows Media Video 7
Description of the codec                 : wmv1
Duration                                 : 24mn 21s
Bit rate                                 : 7 749 Kbps
Width                                    : 1 920 pixels
Height                                   : 1 080 pixels
Display aspect ratio                     : 16:9
Frame rate                               : 29.970 (29970/1000) fps
Bit depth                                : 8 bits
Bits/(Pixel*Frame)                       : 0.125
Stream size                              : 1.32 GiB (94%)
Audio
ID                                       : 2
Format                                   : WMA
Format version                           : Version 2
Codec ID                                 : 161
Codec ID/Info                            : Windows Media Audio
Description of the codec                 : Windows Media Audio V8
Duration                                 : 24mn 21s
Bit rate                                 : 128 Kbps
Channel(s)                               : 2 channels
Sampling rate                            : 48.0 KHz
Bit depth                                : 16 bits
Stream size                              : 22.3 MiB (2%)


NEW adulttorrent.org - Exclusive video only

Related Torrents
Torrent Name   AGE FILES SIZE

 Date: 06/01/18 00:15   in : XXX 

529 days 1

 Date: 06/01/18 00:12   in : XXX 

529 days 1

 Date: 06/01/18 00:09   in : XXX 

529 days 1

 Date: 06/01/18 00:07   in : XXX 

529 days 1

 Date: 06/01/18 00:04   in : XXX 

529 days 1

 Date: 06/01/18 00:03   in : XXX 

529 days 1

 Date: 06/01/18 00:02   in : XXX 

529 days 1

 Date: 06/01/18 00:02   in : XXX 

529 days 1

 Date: 05/31/18 23:59   in : XXX 

529 days 1

 Date: 05/31/18 23:51   in : XXX 

529 days 1

 Date: 05/31/18 23:51   in : XXX 

529 days 1

 Date: 05/31/18 23:50   in : XXX 

529 days 1