Direct Download Brazzers Big Wet Butts July 21 2016 Savana Styles.mp4 torrent

Downloaded: 0
Hits: 288
Brazzers Big Wet Butts July 21 2016 Savana Styles.mp4
ScreenShots:
http://www.madimg.net/XxX/BrazzersBWB0721/1.html
http://www.madimg.net/XxX/BrazzersBWB0721/2.html
http://www.madimg.net/XxX/BrazzersBWB0721/3.html
http://www.madimg.net/XxX/BrazzersBWB0721/4.html
http://www.madimg.net/XxX/BrazzersBWB0721/5.html
INFO:
Format : MPEG-4
Format profile : Base Media
Codec ID : isom (isom/iso2/avc1/mp41)
File size : 305 MiB
Duration : 37mn 55s
Overall bit rate : 1 125 Kbps
Writing application : Lavf57.28.100
Video
ID : 1
Format : AVC
Format/Info : Advanced Video Codec
Format profile : [email protected]/* */
Format settings, CABAC : Yes
Format settings, ReFrames : 5 frames
Codec ID : avc1
Codec ID/Info : Advanced Video Coding
Duration : 37mn 55s
Bit rate : 1 000 Kbps
Width : 854 pixels
Height : 480 pixels
Display aspect ratio : 16:9
Original display aspect ratio : 16:9
Frame rate mode : Constant
Frame rate : 23.976 (24000/1001) fps
Color space : YUV
Chroma subsampling : 4:2:0
Bit depth : 8 bits
Scan type : Progressive
Bits/(Pixel*Frame) : 0.102
Stream size : 269 MiB (88%)
Writing library : x264 core 148 r2665 a01e339
Encoding settings : cabac=1 / ref=5 / deblock=1:0:0 / analyse=0x3:0x113 / me=umh / subme=8 / psy=1 / psy_rd=1.00:0.00 / mixed_ref=1 / me_range=16 / chroma_me=1 / trellis=1 / 8x8dct=1 / cqm=0 / deadzone=21,11 / fast_pskip=1 / chroma_qp_offset=-2 / threads=18 / lookahead_threads=3 / sliced_threads=0 / nr=0 / decimate=1 / interlaced=0 / bluray_compat=0 / constrained_intra=0 / bframes=3 / b_pyramid=2 / b_adapt=2 / b_bias=0 / direct=3 / weightb=1 / open_gop=0 / weightp=2 / keyint=60 / keyint_min=6 / scenecut=40 / intra_refresh=0 / rc_lookahead=50 / rc=abr / mbtree=1 / bitrate=1000 / ratetol=1.0 / qcomp=0.60 / qpmin=0 / qpmax=69 / qpstep=4 / ip_ratio=1.40 / aq=1:1.00
Language : English
Tagged date : UTC 2016-07-18 17:24:32
Audio
ID : 2
Format : AAC
Format/Info : Advanced Audio Codec
Format profile : LC
Codec ID : 40
Duration : 37mn 55s
Bit rate mode : Constant
Bit rate : 130 Kbps
Channel(s) : 2 channels
Channel positions : Front: L R
Sampling rate : 48.0 KHz
Frame rate : 46.875 fps (1024 spf)
Compression mode : Lossy
Stream size : 35.1 MiB (12%)
Language : English
Default : Yes
Alternate group : 1
Tagged date : UTC 2016-07-18 17:24:32

NEW adulttorrent.org - Exclusive video only

Related Torrents
Torrent Name   AGE FILES SIZE

 Date: 06/01/18 00:15   in : XXX 

597 days 1

 Date: 06/01/18 00:12   in : XXX 

597 days 1

 Date: 06/01/18 00:09   in : XXX 

597 days 1

 Date: 06/01/18 00:07   in : XXX 

597 days 1

 Date: 06/01/18 00:04   in : XXX 

597 days 1

 Date: 06/01/18 00:03   in : XXX 

597 days 1

 Date: 06/01/18 00:02   in : XXX 

597 days 1

 Date: 06/01/18 00:02   in : XXX 

597 days 1

 Date: 05/31/18 23:59   in : XXX 

597 days 1

 Date: 05/31/18 23:51   in : XXX 

597 days 1

 Date: 05/31/18 23:51   in : XXX 

597 days 1

 Date: 05/31/18 23:50   in : XXX 

597 days 1


Copyright © OnceSearch.com 2015-2019. OnceSearch.com provides only meta files (small .torrent files) on its web site, and hosts no actual file for download!!!