NEW BEST ADULT Torrent..Tsss....only for you!

Direct Download BigTitsAtSchool - Parker Swayze - Expose Yourself To Higher Learning torrent

download torrent
Size: 261.6 MB
Downloaded: 25
Hits: 153

Video
ID                                       : 1
Format                                   : AVC
Format/Info                              : Advanced Video Codec
Format profile                           : [email protected]
Format settings, CABAC                   : Yes
Format settings, ReFrames                : 5 frames
Codec ID                                 : avc1
Codec ID/Info                            : Advanced Video Coding
Duration                                 : 30mn 43s
Bit rate                                 : 1 000 Kbps
Width                                    : 854 pixels
Height                                   : 480 pixels
Display aspect ratio                     : 16:9
Frame rate mode                          : Constant
Frame rate                               : 29.970 fps
Color space                              : YUV
Chroma subsampling                       : 4:2:0
Bit depth                                : 8 bits
Scan type                                : Progressive
Bits/(Pixel*Frame)                       : 0.081
Stream size                              : 220 MiB (84%)
Writing library                          : x264 core 130 r2274 c832fe9
Encoding settings                        : cabac=1 / ref=5 / deblock=1:0:0 / analyse=0x3:0x113 / me=umh / subme=8 / psy=1 / psy_rd=1.00:0.00 / mixed_ref=1 / me_range=16 / chroma_me=1 / trellis=1 / 8x8dct=1 / cqm=0 / deadzone=21,11 / fast_pskip=1 / chroma_qp_offset=-2 / threads=36 / lookahead_threads=3 / sliced_threads=0 / nr=0 / decimate=1 / interlaced=0 / bluray_compat=0 / constrained_intra=0 / bframes=3 / b_pyramid=2 / b_adapt=2 / b_bias=0 / direct=3 / weightb=1 / open_gop=0 / weightp=2 / keyint=60 / keyint_min=6 / scenecut=40 / intra_refresh=0 / rc_lookahead=50 / rc=abr / mbtree=1 / bitrate=1000 / ratetol=1.0 / qcomp=0.60 / qpmin=0 / qpmax=69 / qpstep=4 / ip_ratio=1.40 / aq=1:1.00
Language                                 : English
Tagged date                              : UTC 2016-03-02 19:33:50
Audio
ID                                       : 2
Format                                   : AAC
Format/Info                              : Advanced Audio Codec
Format profile                           : LC
Codec ID                                 : 40
Duration                                 : 30mn 43s
Duration_LastFrame                       : 33ms
Bit rate mode                            : Constant
Bit rate                                 : 128 Kbps
Channel(s)                               : 2 channels
Channel positions                        : Front: L R
Sampling rate                            : 48.0 KHz
Compression mode                         : Lossy
Stream size                              : 28.1 MiB (11%)
Language                                 : English
Tagged date                              : UTC 2016-03-02 19:33:50

NEW adulttorrent.org - Exclusive video only

Related Torrents
Torrent Name   AGE FILES SIZE

 Date: 11/26/18 13:39   in : Cumshot 

20 days 1 830.6 MB

 Date: 11/08/18 07:32   in : Cumshot 

38 days 1 1 GB

 Date: 11/01/18 14:53   in : Cumshot 

45 days 3 3.1 GB

 Date: 11/01/18 13:03   in : Cumshot 

45 days 1 562.5 MB

 Date: 11/01/18 12:51   in : Cumshot 

45 days 1 346.1 MB

 Date: 10/31/18 18:55   in : Cumshot 

46 days 1 687.7 MB

 Date: 10/23/18 15:43   in : Cumshot 

54 days 1 300.3 MB

 Date: 10/13/18 15:19   in : Cumshot 

64 days 1 317.6 MB

 Date: 09/30/18 18:00   in : Cumshot 

77 days 1 402.2 MB

 Date: 09/21/18 09:10   in : Cumshot 

86 days 3 877.1 MB

 Date: 08/31/18 08:16   in : Cumshot 

107 days 2 1,004.5 MB

 Date: 08/29/18 22:54   in : Cumshot 

108 days 5 1.1 GB