Direct Download BlowJobFridays 15 02 25 Kimberly Large Cock Mouth XXX SD MP4-RARBG torrent

download torrent
Size: 160.7 MB
Downloaded: 121
Hits: 274

http://imgserve.net/img-54f0c471227a5.html
http://imgserve.net/img-54f0c47160451.html
http://imgserve.net/img-54f0c4719e098.html
http://imgserve.net/img-54f0c471dce49.html
http://imgserve.net/img-54f0c472307e2.html
http://imgserve.net/img-54f0c47272645.html
[-] Hide MediaInfo
Video
ID : 1
Format : AVC
Format/Info : Advanced Video Codec
Format profile : [email protected]
Format settings, CABAC : Yes
Format settings, ReFrames : 5 frames
Codec ID : avc1
Codec ID/Info : Advanced Video Coding
Duration : 14mn 9s
Bit rate : 1 448 Kbps
Width : 722 pixels
Height : 406 pixels
Display aspect ratio : 16:9
Frame rate mode : Constant
Frame rate : 30.000 fps
Color space : YUV
Chroma subsampling : 4:2:0
Bit depth : 8 bits
Scan type : Progressive
Bits/(Pixel*Frame) : 0.165
Stream size : 147 MiB (91%)
Writing library : x264 core 142 r24 ea0ca51
Encoding settings : cabac=1 / ref=5 / deblock=1:0:0 / analyse=0x3:0x113 / me=umh / subme=8 / psy=1 / psy_rd=1.00:0.00 / mixed_ref=1 / me_range=16 / chroma_me=1 / trellis=1 / 8x8dct=1 / cqm=0 / deadzone=21,11 / fast_pskip=1 / chroma_qp_offset=-2 / threads=12 / lookahead_threads=2 / sliced_threads=0 / nr=0 / decimate=1 / interlaced=0 / bluray_compat=0 / constrained_intra=0 / bframes=3 / b_pyramid=2 / b_adapt=2 / b_bias=0 / direct=3 / weightb=1 / open_gop=0 / weightp=2 / keyint=250 / keyint_min=25 / scenecut=40 / intra_refresh=0 / rc_lookahead=50 / rc=crf / mbtree=1 / crf=20.0 / qcomp=0.60 / qpmin=0 / qpmax=69 / qpstep=4 / ip_ratio=1.40 / aq=1:1.00
Language : English
Audio
ID : 2
Format : AAC
Format/Info : Advanced Audio Codec
Format profile : LC
Codec ID : 40
Duration : 14mn 9s
Bit rate mode : Constant
Bit rate : 128 Kbps
Channel(s) : 2 channels
Channel positions : Front: L R
Sampling rate : 44.1 KHz
Compression mode : Lossy
Delay relative to video : -1s 24ms
Stream size : 13.0 MiB (8%)
Language : English

NEW adulttorrent.org - Exclusive video only

Related Torrents
Torrent Name   AGE FILES SIZE

 Date: 09/19/19 19:47   in : Big Tits 

2 days 1 465.9 MB

 Date: 09/19/19 13:47   in : Big Tits 

2 days 1 469.9 MB

 Date: 09/19/19 12:13   in : Big Tits 

2 days 3 208.5 MB

 Date: 09/19/19 10:11   in : Big Tits 

3 days 3 1.2 GB

 Date: 09/19/19 09:59   in : Big Tits 

3 days 1 627.3 MB

 Date: 09/19/19 07:09   in : Big Tits 

3 days 1 305.9 MB

 Date: 09/19/19 05:39   in : Big Tits 

3 days 1 356.7 MB

 Date: 09/18/19 16:37   in : Big Tits 

3 days 2 1,010.7 MB

 Date: 09/18/19 13:47   in : Big Tits 

3 days 1 455.7 MB

 Date: 09/18/19 10:04   in : Big Tits 

4 days 2 1 GB

 Date: 09/18/19 08:55   in : Big Tits 

4 days 2 437.4 MB

 Date: 09/18/19 08:55   in : Big Tits 

4 days 1 261.4 MB