Direct Download Bikini.Pleasure.16.06.11.Silvie.Deluxe.XXX.720p.WMV.KTR torrent

download torrent
Size: 258.4 MB
Downloaded: 106
Hits: 193


Video
ID                                       : 1
Format                                   : VC-1
Format profile                           : Main
Codec ID                                 : WMV3
Codec ID/Info                            : Windows Media Video 9
Codec ID/Hint                            : WMV3
Description of the codec                 : wmv3
Duration                                 : 9mn 54s
Bit rate                                 : 3 500 Kbps
Width                                    : 1 280 pixels
Height                                   : 720 pixels
Display aspect ratio                     : 16:9
Frame rate                               : 25.000 fps
Bit depth                                : 8 bits
Scan type                                : Progressive
Compression mode                         : Lossy
Bits/(Pixel*Frame)                       : 0.152
Stream size                              : 248 MiB (96%)
Language                                 : German
Audio
ID                                       : 2
Format                                   : WMA
Format version                           : Version 2
Codec ID                                 : 161
Codec ID/Info                            : Windows Media Audio
Description of the codec                 : Windows Media Audio V8
Duration                                 : 9mn 54s
Bit rate                                 : 128 Kbps
Channel(s)                               : 2 channels
Sampling rate                            : 44.1 KHz
Bit depth                                : 16 bits
Stream size                              : 9.07 MiB (4%)
Language                                 : German


NEW adulttorrent.org - Exclusive video only

Related Torrents
Torrent Name   AGE FILES SIZE

 Date: 06/01/18 00:15   in : XXX 

537 days 1

 Date: 06/01/18 00:12   in : XXX 

537 days 1

 Date: 06/01/18 00:09   in : XXX 

537 days 1

 Date: 06/01/18 00:07   in : XXX 

537 days 1

 Date: 06/01/18 00:04   in : XXX 

537 days 1

 Date: 06/01/18 00:03   in : XXX 

537 days 1

 Date: 06/01/18 00:02   in : XXX 

537 days 1

 Date: 06/01/18 00:02   in : XXX 

537 days 1

 Date: 05/31/18 23:59   in : XXX 

537 days 1

 Date: 05/31/18 23:51   in : XXX 

537 days 1

 Date: 05/31/18 23:51   in : XXX 

537 days 1

 Date: 05/31/18 23:50   in : XXX 

537 days 1