Direct Download BigNaturals - Sierra Simmons - Sierra popping mp4 torrent

download torrent
Size: 329.4 MB
Downloaded: 110
Hits: 137

Sierra Simmons and her amazing DD tits met us at the beach for some boobalicious fun. We worshipped her natural tits while she bounced and submerged them in the water. After the beach, went back to our place where Sierra oiled the melons and thoroughly massaged, squeezed and snaked them to our delight. Soon after, she got her tits, mouth and tight pussy fucked. We sent Sierra back to the beach with her face glazed with jizz.

Format                                   : MPEG-4
Format profile                           : Base Media / Version 2
Codec ID                                 : mp42
File size                                : 329 MiB
Duration                                 : 29mn 54s
Overall bit rate mode                    : Variable
Overall bit rate                         : 1 540 Kbps
Encoded date                             : UTC 2016-04-12 15:38:03
Tagged date                              : UTC 2016-04-12 15:38:03
Writing library                          : Apple QuickTime
Video
ID                                       : 1
Format                                   : AVC
Format/Info                              : Advanced Video Codec
Format profile                           : [email protected]
Format settings, CABAC                   : No
Format settings, ReFrames                : 6 frames
Codec ID                                 : avc1
Codec ID/Info                            : Advanced Video Coding
Duration                                 : 29mn 54s
Source duration                          : 29mn 54s
Bit rate mode                            : Variable
Bit rate                                 : 1 438 Kbps
Maximum bit rate                         : 1 500 Kbps
Width                                    : 768 pixels
Height                                   : 432 pixels
Display aspect ratio                     : 16:9
Frame rate mode                          : Constant
Frame rate                               : 29.970 fps
Standard                                 : Component
Color space                              : YUV
Chroma subsampling                       : 4:2:0
Bit depth                                : 8 bits
Scan type                                : Progressive
Bits/(Pixel*Frame)                       : 0.145
Stream size                              : 308 MiB (93%)
Source stream size                       : 322 MiB
Encoded date                             : UTC 2016-04-12 15:38:03
Tagged date                              : UTC 2016-04-11 15:38:27
Audio
ID                                       : 2
Format                                   : AAC
Format/Info                              : Advanced Audio Codec
Format profile                           : LC
Codec ID                                 : 40
Duration                                 : 29mn 54s
Bit rate mode                            : Variable
Bit rate                                 : 32.0 Kbps
Maximum bit rate                         : 34.8 Kbps
Channel(s)                               : 1 channel
Channel positions                        : Front: C
Sampling rate                            : 32.0 KHz
Compression mode                         : Lossy
Stream size                              : 6.85 MiB (2%)
Encoded date                             : UTC 2016-04-12 15:38:03
Tagged date                              : UTC 2016-04-11 15:38:27


NEW adulttorrent.org - Exclusive video only

Related Torrents
Torrent Name   AGE FILES SIZE

 Date: 06/01/18 00:15   in : XXX 

537 days 1

 Date: 06/01/18 00:12   in : XXX 

537 days 1

 Date: 06/01/18 00:09   in : XXX 

537 days 1

 Date: 06/01/18 00:07   in : XXX 

537 days 1

 Date: 06/01/18 00:04   in : XXX 

537 days 1

 Date: 06/01/18 00:03   in : XXX 

537 days 1

 Date: 06/01/18 00:02   in : XXX 

537 days 1

 Date: 06/01/18 00:02   in : XXX 

537 days 1

 Date: 05/31/18 23:59   in : XXX 

537 days 1

 Date: 05/31/18 23:51   in : XXX 

537 days 1

 Date: 05/31/18 23:51   in : XXX 

537 days 1

 Date: 05/31/18 23:50   in : XXX 

537 days 1